VERSION	0.00.00	1.03.00
FES_MODE	0
BPM_DEF	182.300	182.300	182.300	182.300
MET_DEF	4	4
RESOLUTION	384
CLK_DEF	384
COMPATIBLE_CODE	MA2

BPM	0	0	182.300
MET	0	0	4	4

STR	9	0	0
SV_	9	0	0	96	96	5
TAP	9	0	1
TAP	9	288	5
TAP	9	288	7
TAP	10	0	5
STR	10	0	7
SV_	10	0	7	96	96	2
TAP	10	288	1
TAP	10	288	3
HLD	11	0	2	144
HLD	11	144	3	144
HLD	11	288	4	96
TAP	12	0	5
BRK	12	192	0
HLD	13	0	0	96
TAP	13	96	3
TAP	13	144	2
TAP	13	288	1
HLD	14	0	7	96
TAP	14	96	4
TAP	14	144	5
TAP	14	288	6
TAP	15	0	0
TAP	15	0	7
TAP	15	192	1
TAP	16	0	1
TAP	16	0	3
TAP	16	144	4
TAP	16	144	6
TAP	17	0	1
TAP	17	48	1
TAP	17	192	0
TAP	17	288	6
HLD	18	0	4	144
TAP	18	144	3
TAP	18	288	7
TAP	19	0	7
TAP	19	48	1
TAP	19	192	5
TAP	19	288	5
TAP	20	0	3
TAP	20	144	3
TAP	20	288	0
STR	21	0	6
SI_	21	0	6	96	96	3
HLD	21	48	1	144
TAP	21	288	3
TAP	21	288	4
HLD	22	0	6	144
TAP	22	144	2
TAP	22	288	5
TAP	22	336	0
TAP	23	0	5
TAP	23	48	0
TAP	23	96	5
TAP	23	192	2
TAP	23	240	7
TAP	23	288	2
TAP	24	0	5
TAP	24	48	4
TAP	24	96	5
TAP	24	144	4
BRK	24	192	5
TAP	25	0	1
STR	25	48	4
SI_	25	48	4	96	48	0
TAP	25	192	2
STR	25	288	2
SI_	25	288	2	96	48	7
STR	26	0	6
SI_	26	0	6	96	48	3
TAP	26	144	0
TAP	26	288	2
TAP	27	0	6
STR	27	48	3
SI_	27	48	3	96	48	7
TAP	27	192	5
STR	27	288	5
SI_	27	288	5	96	48	0
STR	28	0	1
SI_	28	0	1	96	48	4
TAP	28	144	7
TAP	28	288	5
TAP	29	0	1
HLD	29	144	7	144
TAP	29	288	5
TAP	30	0	6
HLD	30	144	0	144
TAP	30	288	2
TAP	31	0	4
TAP	31	192	2
TAP	31	192	6
STR	32	0	0
SSL	32	0	0	96	96	4
TAP	33	0	1
TAP	33	96	4
TAP	33	96	5
TAP	33	192	2
TAP	33	240	3
TAP	33	288	1
TAP	33	288	4
TAP	34	0	6
TAP	34	96	2
TAP	34	96	3
TAP	34	192	5
TAP	34	240	4
TAP	34	288	3
TAP	34	288	6
TAP	35	0	0
TAP	35	0	4
TAP	35	96	2
TAP	35	96	6
HLD	35	144	2	144
HLD	35	144	6	144
STR	36	0	0
SI_	36	0	0	96	48	4
STR	36	96	7
SI_	36	96	7	96	48	3
STR	36	192	1
SI_	36	192	1	96	48	5
TAP	37	0	0
TAP	37	0	1
TAP	37	144	6
TAP	37	144	7
TAP	37	288	4
TAP	37	288	5
STR	38	96	7
SCR	38	96	7	96	72	2
TAP	38	192	6
TAP	38	288	5
TAP	39	0	5
TAP	39	0	6
TAP	39	144	0
TAP	39	144	7
TAP	39	288	1
TAP	39	288	2
STR	40	0	0
SI_	40	0	0	96	48	4
TAP	40	192	7
TAP	40	240	1
TAP	40	288	5
STR	41	0	3
SI_	41	0	3	96	48	7
TAP	41	192	5
TAP	41	240	4
TAP	41	288	3
TAP	41	288	6
STR	42	0	4
SI_	42	0	4	96	48	0
TAP	42	192	2
TAP	42	240	3
TAP	42	288	1
TAP	42	288	4
TAP	43	0	0
TAP	43	0	7
TAP	43	96	0
TAP	43	96	7
HLD	43	144	1	144
HLD	43	144	6	144
TAP	44	0	3
TAP	44	24	4
TAP	44	48	3
TAP	44	144	5
TAP	44	168	2
TAP	44	192	5
TAP	44	288	0
TAP	44	288	7
TAP	45	0	0
TAP	45	0	6
TAP	45	144	3
TAP	45	144	7
TAP	45	288	2
TAP	45	288	4
TAP	46	192	0
TAP	46	192	1
TAP	46	288	4
TAP	46	288	5
HLD	47	0	2	144
HLD	47	144	3	144
TAP	47	288	4
TAP	48	0	2
TAP	48	0	7
STR	48	96	0
SV_	48	96	0	96	48	6
STR	48	96	1
SV_	48	96	1	96	48	3
TAP	49	0	6
TAP	49	96	1
TAP	49	144	4
TAP	49	192	3
TAP	49	240	6
TAP	49	288	0
TAP	49	336	5
TAP	50	0	2
TAP	50	48	7
TAP	50	96	3
TAP	50	144	6
TAP	50	192	1
TAP	50	240	4
TAP	50	288	1
TAP	51	0	7
TAP	51	96	2
TAP	51	144	4
TAP	51	192	0
TAP	51	240	6
TAP	51	288	2
TAP	51	336	4
STR	52	0	0
SI_	52	0	0	96	48	2
STR	52	144	3
SI_	52	144	3	96	48	7
BRK	52	288	0
TAP	53	0	1
TAP	53	0	2
TAP	53	144	3
TAP	53	144	4
TAP	53	288	5
TAP	53	288	6
TAP	54	192	6
TAP	54	192	7
TAP	54	288	2
TAP	54	288	3
TAP	55	0	6
TAP	55	0	7
TAP	55	144	4
TAP	55	144	5
TAP	55	288	2
TAP	55	288	3
STR	56	0	7
SI_	56	0	7	96	48	3
STR	56	96	1
SI_	56	96	1	96	48	5
STR	56	192	4
SI_	56	192	4	96	48	7
TAP	57	0	2
TAP	57	48	7
TAP	57	96	2
TAP	57	144	7
TAP	57	192	2
TAP	57	240	4
TAP	57	288	3
TAP	57	336	4
TAP	58	0	7
TAP	58	48	5
TAP	58	96	7
TAP	58	144	5
TAP	58	192	0
TAP	58	240	7
TAP	58	288	0
TAP	58	336	5
TAP	59	0	3
TAP	59	48	5
TAP	59	96	3
TAP	59	144	4
TAP	59	192	2
TAP	59	240	4
TAP	59	288	2
TAP	59	288	3
TAP	60	0	2
TAP	60	24	3
TAP	60	48	2
TAP	60	144	5
TAP	60	168	4
STR	60	192	5
SCR	60	192	5	96	48	7
TAP	61	0	0
TAP	61	0	1
TAP	61	144	4
TAP	61	144	5
TAP	61	288	2
TAP	61	288	3
STR	62	192	1
SCR	62	192	1	96	48	3
TAP	62	240	0
TAP	62	288	7
TAP	63	0	4
TAP	63	0	5
TAP	63	144	1
TAP	63	144	3
TAP	63	288	6
TAP	63	288	7
TAP	64	0	4
TAP	64	48	3
TAP	64	96	2
TAP	64	144	1
TAP	64	192	0
BRK	64	288	0
TAP	65	0	7
TAP	65	48	6
TAP	65	96	5
TAP	65	144	0
TAP	65	192	1
TAP	65	240	2
TAP	65	288	6
TAP	65	336	5
TAP	66	0	4
TAP	66	48	1
TAP	66	96	2
TAP	66	144	3
TAP	66	192	6
TAP	66	240	1
TAP	66	288	7
TAP	66	336	0
TAP	67	0	5
TAP	67	48	4
TAP	67	96	5
TAP	67	144	1
TAP	67	192	0
TAP	67	240	1
TAP	67	288	6
TAP	67	336	7
TAP	68	0	6
TAP	68	48	2
TAP	68	96	3
TAP	68	144	2
STR	68	192	1
SCR	68	192	1	96	48	3
STR	68	192	7
SCL	68	192	7	96	48	5
HLD	69	0	2	288
TAP	69	96	3
TAP	69	144	3
TAP	69	192	3
TAP	69	240	3
TAP	69	288	3
HLD	70	0	5	288
TAP	70	96	4
TAP	70	144	4
TAP	70	192	4
TAP	70	240	4
TAP	70	288	4
TAP	71	0	3
TAP	71	48	7
TAP	71	96	2
TAP	71	144	6
TAP	71	192	1
TAP	71	240	5
TAP	71	288	0
TAP	71	336	4
STR	72	0	1
SI_	72	0	1	96	48	3
STR	72	96	7
SI_	72	96	7	96	48	3
STR	72	192	0
SI_	72	192	0	96	48	3
TAP	73	0	0
TAP	73	0	1
TAP	73	192	3
TAP	74	0	6
TAP	74	0	7
TAP	74	192	4
TAP	75	0	0
TAP	75	0	7
TAP	75	192	3
TAP	75	192	4
TAP	76	0	0
TAP	76	0	1
TAP	76	96	6
TAP	76	96	7
BRK	76	192	0
BRK	76	192	7
TAP	77	0	0
TAP	77	96	7
TAP	77	192	6
TAP	77	288	5
TAP	78	0	1
TAP	78	96	2
TAP	78	192	3
TAP	78	288	4
TAP	79	0	6
TAP	79	48	5
TAP	79	96	4
TAP	79	144	3
TAP	79	192	7
TAP	79	240	0
TAP	79	288	1
TAP	79	336	2
TAP	80	0	6
TAP	80	0	7
TAP	80	96	1
TAP	80	96	4
STR	80	192	6
SI_	80	192	6	96	48	3
STR	80	192	7
SI_	80	192	7	96	48	2

T_REC_TAP	296
T_REC_BRK	6
T_REC_XTP	0
T_REC_HLD	18
T_REC_XHO	0
T_REC_STR	33
T_REC_BST	0
T_REC_XST	0
T_REC_TTP	0
T_REC_THO	0
T_REC_SLD	33
T_REC_ALL	386
T_NUM_TAP	329
T_NUM_BRK	6
T_NUM_HLD	18
T_NUM_SLD	33
T_NUM_ALL	386
T_JUDGE_TAP	335
T_JUDGE_HLD	57
T_JUDGE_SLD	33
T_JUDGE_ALL	425
TTM_EACHPAIRS	61
TTM_SCR_TAP	164500
TTM_SCR_BRK	15600
TTM_SCR_HLD	18000
TTM_SCR_SLD	49500
TTM_SCR_ALL	247600
TTM_SCR_S	239600
TTM_SCR_SS	247000
TTM_RAT_ACV	10024

