VERSION	0.00.00	1.03.00
FES_MODE	0
BPM_DEF	182.300	182.300	182.300	182.300
MET_DEF	4	4
RESOLUTION	384
CLK_DEF	384
COMPATIBLE_CODE	MA2

BPM	0	0	182.300
MET	0	0	4	4

TAP	9	0	1
TAP	9	192	0
TAP	9	192	1
TAP	10	0	6
TAP	10	192	6
TAP	10	192	7
TAP	11	0	2
TAP	11	192	2
TAP	11	192	3
TAP	12	0	4
TAP	12	0	5
TAP	12	192	4
TAP	12	192	5
TAP	13	0	0
TAP	13	192	6
TAP	13	192	7
TAP	14	0	7
TAP	14	192	0
TAP	14	192	1
TAP	15	0	2
TAP	15	192	2
TAP	15	192	3
TAP	16	0	4
TAP	16	0	5
TAP	17	0	4
TAP	17	192	3
TAP	17	192	5
TAP	18	0	0
TAP	18	192	1
TAP	18	192	7
TAP	19	0	6
TAP	19	192	5
TAP	19	192	7
TAP	20	0	2
TAP	20	192	1
TAP	20	192	3
TAP	21	0	4
TAP	21	192	3
TAP	21	192	5
TAP	22	0	3
TAP	22	192	2
TAP	22	192	4
TAP	23	0	7
TAP	23	192	0
TAP	23	192	6
TAP	24	0	1
TAP	24	96	1
TAP	24	192	0
TAP	24	192	2
TAP	25	0	7
TAP	25	192	0
TAP	25	192	4
TAP	26	0	1
TAP	26	96	2
TAP	26	192	3
TAP	26	192	7
TAP	27	0	0
TAP	27	192	3
TAP	27	192	7
TAP	28	0	6
TAP	28	96	5
TAP	28	192	0
TAP	28	192	4
TAP	29	0	2
TAP	29	192	0
TAP	29	192	1
TAP	30	0	6
TAP	30	96	6
TAP	30	192	4
TAP	30	192	5
TAP	31	0	0
TAP	31	192	7
TAP	32	0	1
TAP	32	0	6
BRK	32	96	0
BRK	32	96	7
TAP	33	0	0
TAP	33	0	1
TAP	33	96	0
TAP	33	96	1
TAP	33	192	6
TAP	33	192	7
TAP	33	288	6
TAP	33	288	7
TAP	34	0	0
TAP	34	0	1
TAP	34	96	2
TAP	34	96	7
TAP	34	192	6
TAP	34	192	7
TAP	34	288	0
TAP	34	288	5
HLD	35	0	1	96
HLD	35	0	6	96
HLD	35	144	0	240
HLD	35	144	7	240
TAP	36	192	0
TAP	36	288	7
HLD	37	0	3	144
HLD	37	0	4	144
TAP	37	288	2
TAP	37	288	5
TAP	38	192	3
TAP	38	288	4
HLD	39	0	0	144
HLD	39	0	7	144
TAP	39	288	1
TAP	39	288	6
STR	40	0	0
SSL	40	0	0	96	192	4
TAP	41	0	7
TAP	41	96	6
TAP	41	192	5
TAP	41	288	4
TAP	42	0	0
TAP	42	96	1
TAP	42	192	2
TAP	42	288	3
TAP	43	0	1
TAP	43	96	0
TAP	43	192	7
TAP	43	288	6
TAP	44	0	6
TAP	44	0	7
TAP	44	192	4
TAP	44	192	5
HLD	45	0	3	144
HLD	45	0	4	144
TAP	45	288	1
TAP	45	288	6
TAP	46	192	6
TAP	46	288	7
TAP	47	0	0
TAP	47	192	1
TAP	47	192	7
TAP	48	0	4
TAP	48	192	3
TAP	48	192	5
STR	49	0	7
SI_	49	0	7	96	144	3
TAP	49	192	1
TAP	49	288	1
STR	50	0	1
SI_	50	0	1	96	144	5
TAP	50	192	6
TAP	50	288	6
TAP	51	0	5
TAP	51	0	6
TAP	51	192	3
TAP	51	192	4
TAP	52	0	1
TAP	52	0	2
TAP	52	192	3
TAP	52	192	4
TAP	53	0	0
TAP	53	0	7
TAP	53	192	4
TAP	54	0	6
TAP	54	0	7
TAP	54	192	3
TAP	55	0	0
TAP	55	0	1
TAP	55	192	5
TAP	56	0	1
TAP	56	0	6
BRK	56	192	0
BRK	56	192	7
TAP	57	0	1
TAP	57	96	0
TAP	57	96	2
TAP	57	192	6
TAP	57	288	5
TAP	57	288	7
TAP	58	0	2
TAP	58	96	2
TAP	58	96	3
TAP	58	192	5
TAP	58	288	4
TAP	58	288	5
TAP	59	0	1
TAP	59	96	2
TAP	59	96	3
TAP	59	192	6
TAP	59	288	4
TAP	59	288	5
TAP	60	0	1
TAP	60	0	6
TAP	60	192	0
TAP	60	192	1
TAP	60	288	6
TAP	60	288	7
HLD	61	0	0	144
TAP	61	144	2
TAP	61	288	2
TAP	62	192	7
TAP	62	288	0
TAP	63	0	6
TAP	63	192	4
TAP	64	0	0
TAP	64	96	0
TAP	64	192	2
TAP	64	288	2
TAP	65	0	2
TAP	65	96	1
TAP	65	96	3
TAP	65	192	5
TAP	65	288	4
TAP	65	288	6
TAP	66	0	2
TAP	66	96	1
TAP	66	96	3
TAP	66	192	5
TAP	66	288	4
TAP	66	288	6
TAP	67	0	1
TAP	67	96	2
TAP	67	96	3
TAP	67	192	6
TAP	67	288	4
TAP	67	288	5
TAP	68	0	1
TAP	68	96	2
TAP	68	96	3
TAP	68	192	6
TAP	68	288	4
TAP	68	288	5
STR	69	0	7
SCR	69	0	7	96	192	2
STR	70	0	0
SCL	70	0	0	96	192	5
STR	71	0	6
SCL	71	0	6	96	144	4
STR	72	0	1
SCR	72	0	1	96	144	3
TAP	73	0	0
TAP	73	0	1
TAP	74	0	2
TAP	74	0	7
TAP	75	0	3
TAP	75	0	6
TAP	76	0	4
TAP	76	0	5
TAP	76	96	4
TAP	76	96	5
TAP	76	192	2
TAP	76	192	3
TAP	76	288	2
TAP	76	288	3
TAP	77	0	5
TAP	77	96	4
TAP	77	192	3
TAP	77	288	2
TAP	78	0	2
TAP	78	96	3
TAP	78	192	4
TAP	78	288	5
TAP	79	0	6
TAP	79	96	7
TAP	79	192	0
TAP	79	288	1
TAP	80	0	0
TAP	80	0	4
TAP	80	96	1
TAP	80	96	5
TAP	80	192	2
TAP	80	192	6
BRK	80	288	3
BRK	80	288	7

T_REC_TAP	237
T_REC_BRK	6
T_REC_XTP	0
T_REC_HLD	11
T_REC_XHO	0
T_REC_STR	7
T_REC_BST	0
T_REC_XST	0
T_REC_TTP	0
T_REC_THO	0
T_REC_SLD	7
T_REC_ALL	268
T_NUM_TAP	244
T_NUM_BRK	6
T_NUM_HLD	11
T_NUM_SLD	7
T_NUM_ALL	268
T_JUDGE_TAP	250
T_JUDGE_HLD	35
T_JUDGE_SLD	7
T_JUDGE_ALL	292
TTM_EACHPAIRS	82
TTM_SCR_TAP	122000
TTM_SCR_BRK	15600
TTM_SCR_HLD	11000
TTM_SCR_SLD	10500
TTM_SCR_ALL	159100
TTM_SCR_S	153750
TTM_SCR_SS	158500
TTM_RAT_ACV	10037

