VERSION	0.00.00	1.03.00
FES_MODE	0
BPM_DEF	140.000	140.000	140.000	140.000
MET_DEF	4	4
RESOLUTION	384
CLK_DEF	384
COMPATIBLE_CODE	MA2

BPM	0	0	140.000
MET	0	0	4	4

TAP	2	0	2
HLD	2	0	3	336
TAP	2	96	2
TAP	2	192	1
TAP	2	288	1
TAP	2	336	1
TAP	2	352	3
TAP	2	368	2
HLD	3	0	4	288
TAP	3	96	5
STR	3	192	6
SCR	3	192	6	96	48	1
HLD	4	0	4	336
TAP	4	0	5
TAP	4	96	5
TAP	4	192	6
TAP	4	288	6
TAP	4	336	6
TAP	4	352	4
TAP	4	368	5
HLD	5	0	3	288
TAP	5	96	2
STR	5	192	1
SCL	5	192	1	96	48	6
STR	6	0	6
SI_	6	0	6	96	48	4
STR	6	0	7
SI_	6	0	7	96	48	3
TAP	6	96	6
TAP	6	96	7
HLD	6	192	1	72
HLD	6	264	2	72
TAP	6	336	3
STR	7	0	0
SI_	7	0	0	96	48	4
STR	7	0	1
SI_	7	0	1	96	48	3
TAP	7	96	0
TAP	7	96	1
HLD	7	192	6	72
HLD	7	264	5	72
TAP	7	336	4
STR	8	0	0
SCR	8	0	0	96	48	3
STR	8	0	7
SCL	8	0	7	96	48	4
TAP	8	96	0
TAP	8	96	7
TAP	8	192	2
TAP	8	192	5
TAP	8	264	1
TAP	8	264	4
TAP	8	336	3
TAP	8	336	6
STR	9	0	4
SI_	9	0	4	96	48	7
STR	9	96	3
SI_	9	96	3	96	48	0
TAP	9	96	4
TAP	9	192	3
STR	9	192	4
SI_	9	192	4	96	48	7
BRK	9	288	0
TAP	9	288	4
TAP	10	0	3
TAP	10	0	7
HLD	10	48	0	96
TAP	10	48	4
TAP	10	144	1
TAP	10	192	1
TAP	10	240	2
TAP	10	288	2
TAP	10	336	1
TAP	11	0	0
TAP	11	0	4
TAP	11	48	3
HLD	11	48	7	96
TAP	11	144	6
TAP	11	192	6
TAP	11	240	5
TAP	11	288	5
TAP	11	336	6
TAP	12	0	3
TAP	12	0	7
HLD	12	48	0	96
TAP	12	48	4
TAP	12	144	1
TAP	12	192	2
TAP	12	240	3
TAP	12	288	2
TAP	12	336	1
TAP	13	0	0
TAP	13	0	7
TAP	13	48	1
TAP	13	72	0
TAP	13	96	1
TAP	13	144	6
TAP	13	168	5
TAP	13	192	6
TAP	13	240	2
TAP	13	264	3
TAP	13	288	2
TAP	13	336	7
TAP	14	0	3
TAP	14	0	7
TAP	14	48	0
HLD	14	48	4	96
TAP	14	144	2
TAP	14	192	2
TAP	14	240	0
STR	14	288	0
SI_	14	288	0	96	48	4
TAP	14	336	1
TAP	14	336	7
TAP	15	144	5
TAP	15	192	5
TAP	15	240	6
TAP	15	288	6
TAP	15	336	5
TAP	16	0	0
TAP	16	0	4
HLD	16	48	3	96
TAP	16	48	7
TAP	16	144	4
TAP	16	192	5
TAP	16	240	6
TAP	16	288	7
TAP	16	336	0
TAP	17	0	0
TAP	17	0	7
TAP	17	48	6
TAP	17	72	7
TAP	17	96	6
TAP	17	144	1
TAP	17	168	2
TAP	17	192	1
TAP	17	240	5
TAP	17	264	4
TAP	17	288	5
BRK	17	336	0
HLD	18	48	1	144
TAP	18	96	2
TAP	18	144	3
HLD	18	192	4	144
TAP	18	240	5
TAP	18	288	6
STR	18	336	7
SCR	18	336	7	96	48	2
STR	19	48	4
SCR	19	48	4	96	48	7
TAP	19	144	3
HLD	19	192	3	96
TAP	19	288	4
HLD	19	336	5	96
TAP	20	0	2
HLD	20	48	1	96
TAP	20	96	6
HLD	20	144	7	96
TAP	20	192	0
STR	20	240	1
SCR	20	240	1	96	48	4
HLD	20	336	6	96
TAP	21	48	5
TAP	21	72	6
TAP	21	96	5
TAP	21	144	3
TAP	21	168	4
TAP	21	192	3
TAP	21	240	1
TAP	21	264	2
TAP	21	288	1
TAP	21	336	7
HLD	22	48	5	144
TAP	22	96	6
TAP	22	144	7
HLD	22	192	0	144
TAP	22	240	1
TAP	22	288	2
STR	22	336	3
SCR	22	336	3	96	48	6
STR	23	48	0
SCR	23	48	0	96	48	3
TAP	23	144	7
HLD	23	192	7	96
TAP	23	288	0
HLD	23	336	1	96
TAP	24	0	6
HLD	24	48	5	96
TAP	24	96	2
HLD	24	144	3	96
TAP	24	192	4
STR	24	240	6
SCL	24	240	6	96	48	3
TAP	24	288	3
HLD	24	336	1	96
TAP	25	48	2
TAP	25	72	1
TAP	25	96	2
TAP	25	144	4
TAP	25	168	3
TAP	25	192	4
TAP	25	240	6
TAP	25	264	5
TAP	25	288	6
BRK	25	336	0
TAP	26	0	6
TAP	26	0	7
TAP	26	48	6
TAP	26	48	7
TAP	26	96	4
STR	26	96	5
SI_	26	96	5	96	48	0
TAP	26	144	2
TAP	26	144	3
TAP	26	192	1
HLD	26	288	3	144
STR	26	336	2
SI_	26	336	2	96	48	7
STR	27	48	2
SI_	27	48	2	96	48	5
TAP	27	144	6
HLD	27	192	6	96
TAP	27	288	5
TAP	27	336	4
TAP	28	0	3
STR	28	48	2
SCR	28	48	2	96	48	5
TAP	28	96	1
TAP	28	144	0
TAP	28	192	7
TAP	28	240	1
STR	28	240	6
SXL	28	240	6	96	144	1
HLD	29	96	2	96
TAP	29	192	3
HLD	29	216	4	72
BRK	29	288	7
TAP	30	0	0
TAP	30	0	1
TAP	30	48	0
TAP	30	48	1
STR	30	96	2
SI_	30	96	2	96	48	7
TAP	30	96	3
TAP	30	144	4
TAP	30	144	5
TAP	30	192	6
HLD	30	288	4	144
STR	30	336	5
SI_	30	336	5	96	48	0
STR	31	48	5
SI_	31	48	5	96	48	2
TAP	31	144	1
HLD	31	192	1	96
STR	31	288	2
SI_	31	288	2	96	48	6
TAP	31	336	2
STR	32	0	1
SI_	32	0	1	96	48	5
TAP	32	48	1
STR	32	96	0
SI_	32	96	0	96	48	4
TAP	32	144	0
STR	32	192	7
SI_	32	192	7	96	48	3
TAP	32	240	7
STR	32	288	6
SI_	32	288	6	96	480	2
BRK	32	336	6
STR	34	192	2
SI_	34	192	2	96	48	7
STR	34	192	3
SI_	34	192	3	96	48	6
STR	35	0	4
SI_	35	0	4	96	48	1
STR	35	0	5
SI_	35	0	5	96	48	0
TAP	35	96	4
TAP	35	96	5
STR	35	192	0
SI_	35	192	0	96	48	3
STR	35	192	7
SI_	35	192	7	96	48	4
TAP	35	240	1
TAP	35	240	6
TAP	35	288	0
TAP	35	288	7
TAP	36	0	2
HLD	36	0	5	96
STR	36	48	1
SCR	36	48	1	96	48	4
TAP	36	96	0
HLD	36	144	7	96
TAP	36	240	5
TAP	36	288	6
TAP	36	336	5
STR	36	336	7
SUL	36	336	7	96	48	2
TAP	37	48	0
TAP	37	96	1
TAP	37	144	1
TAP	37	192	2
TAP	37	192	3
STR	37	240	4
SXR	37	240	4	96	192	1
STR	37	240	5
SXL	37	240	5	96	192	0
TAP	37	288	6
TAP	37	288	7
BRK	38	192	0
BRK	38	192	1
BRK	38	288	6
BRK	38	288	7
STR	39	0	1
SI_	39	0	1	96	48	4
STR	39	0	5
SI_	39	0	5	96	48	0
TAP	39	96	1
TAP	39	96	5
STR	39	192	2
SI_	39	192	2	96	48	7
STR	39	192	6
SI_	39	192	6	96	48	3
TAP	39	240	3
TAP	39	240	7
TAP	39	288	2
TAP	39	288	6
HLD	40	0	2	96
TAP	40	0	5
STR	40	48	6
SCL	40	48	6	96	48	3
TAP	40	96	7
HLD	40	144	0	96
TAP	40	240	2
TAP	40	288	1
STR	40	336	0
SCL	40	336	0	96	96	4
STR	41	48	4
SCL	41	48	4	96	96	0
TAP	41	144	0
TAP	41	192	7
TAP	41	240	6
TAP	41	288	5
TAP	41	336	0
HLD	41	336	4	96
STR	42	48	3
SXL	42	48	3	96	96	3
SXR	42	48	3	96	96	3
TAP	42	96	3
BRK	42	288	3
BRK	42	288	7
TAP	43	0	1
STR	43	0	4
SI_	43	0	4	96	48	1
BRK	43	96	0
TAP	43	96	4
TAP	43	192	0
STR	43	192	5
SI_	43	192	5	96	48	0
TAP	43	288	5
BRK	43	288	7
TAP	44	0	6
TAP	44	0	7
TAP	44	48	0
TAP	44	48	1
TAP	44	96	2
TAP	44	96	3
STR	44	144	4
SUR	44	144	4	96	96	3
STR	44	144	5
SCR	44	144	5	96	96	2
STR	45	0	3
SI_	45	0	3	96	48	6
TAP	45	0	6
TAP	45	96	3
BRK	45	96	7
STR	45	192	2
SI_	45	192	2	96	48	7
TAP	45	192	7
BRK	45	288	0
TAP	45	288	2
TAP	46	0	1
TAP	46	0	3
STR	46	48	0
SUL	46	48	0	96	96	3
STR	46	48	7
SUR	46	48	7	96	96	4
TAP	46	96	4
TAP	46	96	6
TAP	47	0	0
STR	47	0	5
SI_	47	0	5	96	48	0
TAP	47	96	5
BRK	47	96	7
STR	47	192	2
SI_	47	192	2	96	48	7
TAP	47	192	7
BRK	47	288	0
TAP	47	288	2
TAP	48	0	0
TAP	48	0	1
TAP	48	48	6
TAP	48	48	7
TAP	48	96	4
TAP	48	96	5
STR	48	144	2
SCL	48	144	2	96	96	5
STR	48	144	3
SUL	48	144	3	96	96	4
TAP	49	0	0
STR	49	0	5
SI_	49	0	5	96	48	0
TAP	49	48	6
BRK	49	96	7
STR	49	192	2
SI_	49	192	2	96	48	7
TAP	49	192	7
TAP	49	240	1
BRK	49	288	0
TAP	50	0	0
TAP	50	0	7
TAP	50	48	1
TAP	50	48	6
TAP	50	96	2
TAP	50	96	5
STR	50	144	3
SSR	50	144	3	96	96	7
STR	50	144	4
SSL	50	144	4	96	96	0
STR	51	0	2
SI_	51	0	2	96	48	5
TAP	51	0	5
STR	51	96	2
SI_	51	96	2	96	48	6
BRK	51	96	6
STR	51	192	2
SI_	51	192	2	96	48	7
TAP	51	192	7
BRK	51	288	0
TAP	51	288	2
STR	52	0	1
SUR	52	0	1	96	48	6
STR	52	48	5
SUR	52	48	5	96	48	2
TAP	52	240	0
TAP	52	288	0
TAP	52	288	7
TAP	53	0	2
STR	53	0	5
SI_	53	0	5	96	48	2
TAP	53	96	1
BST	53	96	5
SI_	53	96	5	96	48	1
TAP	53	192	0
STR	53	192	5
SI_	53	192	5	96	48	0
TAP	53	288	5
BRK	53	288	7
STR	54	0	6
SXL	54	0	6	96	192	3
STR	54	48	1
SXR	54	48	1	96	144	4
TAP	54	96	6
TAP	54	144	1
STR	55	0	2
SI_	55	0	2	96	48	7
TAP	55	0	7
BST	55	96	0
SCR	55	96	0	96	48	3
TAP	55	96	2
STR	55	192	5
SI_	55	192	5	96	48	0
TAP	55	288	5
BST	55	288	7
SCL	55	288	7	96	48	4
TAP	56	0	3
TAP	56	48	2
TAP	56	96	1
STR	56	144	0
SF_	56	144	0	96	48	4
STR	57	0	2
SCL	57	0	2	96	48	7
STR	57	0	6
SCL	57	0	6	96	48	3
TAP	57	48	3
TAP	57	48	7
BRK	57	96	2
BRK	57	96	6
STR	57	192	1
SCR	57	192	1	96	48	4
STR	57	192	5
SCR	57	192	5	96	48	0
TAP	57	240	0
TAP	57	240	4
BRK	57	288	1
BRK	57	288	5
TAP	58	0	2
TAP	58	0	6
TAP	58	48	1
TAP	58	48	5
TAP	58	96	0
TAP	58	96	4
STR	58	144	3
SUR	58	144	3	96	48	1
STR	58	144	7
SUR	58	144	7	96	48	5
TAP	59	0	3
TAP	59	0	7
TAP	59	48	2
TAP	59	48	6
TAP	59	96	1
TAP	59	96	5
TAP	59	144	4
TAP	59	168	3
TAP	59	192	4
HLD	59	216	5	48
HLD	59	264	6	48
TAP	59	312	1
TAP	59	336	1
TAP	59	360	2
TAP	60	0	2
TAP	60	48	3
TAP	60	48	7
TAP	60	96	2
TAP	60	96	6
TAP	60	144	1
TAP	60	144	5
HLD	60	192	0	48
TAP	60	240	7
TAP	60	264	7
TAP	60	288	3
TAP	60	336	0
TAP	60	336	4
TAP	61	0	3
STR	61	0	7
SI_	61	0	7	96	528	3
TAP	61	48	2
TAP	61	96	4
TAP	61	144	1
TAP	61	192	5
TAP	61	240	0
TAP	61	288	6
TAP	61	336	7
TAP	62	0	6
TAP	62	48	0
TAP	62	96	5
TAP	62	144	1
TAP	62	192	4
TAP	62	240	2
HLD	62	288	3	96
STR	63	0	4
SI_	63	0	4	96	48	7
STR	63	96	3
SI_	63	96	3	96	48	0
TAP	63	192	4
TAP	63	264	1
TAP	63	264	6
BRK	63	336	0
BRK	63	336	7

T_REC_TAP	310
T_REC_BRK	28
T_REC_XTP	0
T_REC_HLD	42
T_REC_XHO	0
T_REC_STR	86
T_REC_BST	3
T_REC_XST	0
T_REC_TTP	0
T_REC_THO	0
T_REC_SLD	90
T_REC_ALL	559
T_NUM_TAP	396
T_NUM_BRK	31
T_NUM_HLD	42
T_NUM_SLD	90
T_NUM_ALL	559
T_JUDGE_TAP	427
T_JUDGE_HLD	105
T_JUDGE_SLD	90
T_JUDGE_ALL	622
TTM_EACHPAIRS	118
TTM_SCR_TAP	198000
TTM_SCR_BRK	80600
TTM_SCR_HLD	42000
TTM_SCR_SLD	135000
TTM_SCR_ALL	455600
TTM_SCR_S	438950
TTM_SCR_SS	452500
TTM_RAT_ACV	10068

