VERSION	0.00.00	1.03.00
FES_MODE	0
BPM_DEF	140.000	140.000	140.000	140.000
MET_DEF	4	4
RESOLUTION	384
CLK_DEF	384
COMPATIBLE_CODE	MA2

BPM	0	0	140.000
MET	0	0	4	4

TAP	2	0	2
TAP	2	96	2
TAP	2	192	3
TAP	2	288	3
TAP	3	0	4
TAP	3	96	4
TAP	3	192	5
TAP	3	288	5
TAP	4	0	3
TAP	4	96	3
TAP	4	192	1
TAP	4	288	1
TAP	5	0	7
TAP	5	96	7
TAP	5	192	5
TAP	5	288	5
TAP	6	0	6
TAP	6	0	7
TAP	6	96	0
TAP	6	96	1
TAP	6	192	2
TAP	6	192	3
TAP	6	264	1
TAP	6	264	2
TAP	6	336	0
TAP	6	336	1
TAP	7	0	6
TAP	7	0	7
TAP	7	96	4
TAP	7	96	5
TAP	7	192	2
TAP	7	192	3
TAP	7	264	3
TAP	7	264	4
TAP	7	336	4
TAP	7	336	5
TAP	8	0	6
TAP	8	0	7
TAP	8	96	0
TAP	8	96	1
TAP	8	192	2
TAP	8	192	3
TAP	8	264	1
TAP	8	264	2
TAP	8	336	0
TAP	8	336	1
STR	9	0	6
SI_	9	0	6	96	48	3
STR	9	96	1
SI_	9	96	1	96	48	4
STR	9	192	0
SI_	9	192	0	96	48	5
TAP	10	0	7
HLD	10	48	0	96
TAP	10	144	1
TAP	10	192	1
TAP	10	240	2
TAP	10	288	2
TAP	10	336	3
TAP	11	0	7
HLD	11	48	6	96
TAP	11	144	5
TAP	11	192	5
TAP	11	240	4
TAP	11	288	4
TAP	11	336	3
TAP	12	0	2
HLD	12	48	1	96
TAP	12	144	2
TAP	12	192	3
TAP	12	240	4
TAP	12	288	5
TAP	12	336	6
TAP	13	0	7
TAP	13	48	0
TAP	13	72	1
TAP	13	96	0
TAP	13	144	6
TAP	13	168	7
TAP	13	192	6
TAP	13	240	4
TAP	13	264	5
TAP	13	288	4
TAP	13	336	2
TAP	14	0	0
HLD	14	48	6	96
TAP	14	144	4
TAP	14	192	4
TAP	14	240	2
TAP	14	288	2
TAP	14	336	0
TAP	15	0	1
HLD	15	48	3	96
TAP	15	144	5
TAP	15	192	5
TAP	15	240	7
TAP	15	288	7
TAP	15	336	1
TAP	16	0	0
HLD	16	48	6	96
TAP	16	144	4
TAP	16	192	4
TAP	16	240	2
TAP	16	288	2
TAP	16	336	0
TAP	17	0	1
TAP	17	48	6
TAP	17	72	7
TAP	17	96	6
TAP	17	144	4
TAP	17	168	5
TAP	17	192	4
TAP	17	240	2
TAP	17	264	3
TAP	17	288	2
BRK	17	336	0
TAP	18	48	1
TAP	18	96	1
TAP	18	144	2
TAP	18	192	3
TAP	18	240	4
TAP	18	288	5
HLD	18	336	6	96
TAP	19	48	5
TAP	19	96	5
TAP	19	144	4
TAP	19	192	2
TAP	19	240	2
TAP	19	288	0
HLD	19	336	0	96
TAP	20	48	1
TAP	20	96	2
TAP	20	144	3
TAP	20	192	4
TAP	20	240	5
TAP	20	288	6
HLD	20	336	7	96
TAP	21	48	5
TAP	21	72	6
TAP	21	96	5
TAP	21	144	3
TAP	21	168	4
TAP	21	192	3
TAP	21	240	1
TAP	21	264	2
TAP	21	288	1
TAP	21	336	7
TAP	22	48	1
TAP	22	96	1
TAP	22	144	5
TAP	22	192	5
TAP	22	240	3
TAP	22	288	3
HLD	22	336	1	96
TAP	23	48	2
TAP	23	96	2
TAP	23	144	4
TAP	23	192	4
TAP	23	240	6
TAP	23	288	6
HLD	23	336	0	96
TAP	24	48	7
TAP	24	96	6
TAP	24	144	5
TAP	24	192	4
TAP	24	240	3
TAP	24	288	2
HLD	24	336	1	96
TAP	25	48	3
TAP	25	72	2
TAP	25	96	3
TAP	25	144	5
TAP	25	168	4
TAP	25	192	5
TAP	25	240	7
TAP	25	264	6
TAP	25	288	7
BRK	25	336	0
TAP	26	0	6
TAP	26	0	7
TAP	26	48	6
TAP	26	48	7
TAP	26	96	4
TAP	26	96	5
TAP	26	144	2
TAP	26	144	3
TAP	26	192	0
TAP	26	192	1
HLD	26	288	2	144
STR	26	336	3
SI_	26	336	3	96	48	7
TAP	27	144	7
HLD	27	192	6	96
STR	27	288	5
SI_	27	288	5	96	48	0
HLD	28	96	1	144
TAP	28	240	2
STR	28	288	3
SI_	28	288	3	96	48	7
HLD	29	96	6	96
TAP	29	192	4
HLD	29	216	3	72
BRK	29	288	0
TAP	30	0	2
TAP	30	0	3
TAP	30	48	2
TAP	30	48	3
TAP	30	96	4
TAP	30	96	5
TAP	30	144	6
TAP	30	144	7
TAP	30	192	0
TAP	30	192	1
HLD	30	288	2	144
STR	30	336	3
SI_	30	336	3	96	48	7
TAP	31	144	6
HLD	31	192	5	96
STR	31	288	4
SI_	31	288	4	96	48	0
TAP	32	0	2
TAP	32	48	2
TAP	32	96	6
TAP	32	144	6
TAP	32	192	5
TAP	32	240	3
TAP	32	288	1
BRK	32	336	7
STR	34	192	4
SI_	34	192	4	96	48	1
STR	34	192	5
SI_	34	192	5	96	48	0
TAP	35	0	2
TAP	35	24	2
TAP	35	48	4
TAP	35	96	5
TAP	35	120	5
TAP	35	144	7
TAP	35	192	0
TAP	35	216	0
TAP	35	240	2
TAP	35	288	3
TAP	35	312	3
TAP	35	336	5
TAP	36	0	2
TAP	36	24	2
TAP	36	48	0
TAP	36	96	7
TAP	36	120	7
TAP	36	144	5
TAP	36	192	4
TAP	36	216	4
TAP	36	240	2
TAP	36	288	1
STR	36	336	0
SI_	36	336	0	96	48	4
TAP	37	48	6
STR	37	96	5
SI_	37	96	5	96	48	1
TAP	37	144	4
TAP	37	192	3
TAP	37	240	2
TAP	37	288	1
HLD	37	336	0	144
BRK	38	192	6
BRK	38	192	7
BRK	38	288	0
BRK	38	288	1
TAP	39	0	5
TAP	39	24	5
TAP	39	48	3
TAP	39	96	2
TAP	39	120	2
TAP	39	144	0
TAP	39	192	7
TAP	39	216	7
TAP	39	240	5
TAP	39	288	4
TAP	39	312	4
TAP	39	336	2
TAP	40	0	5
TAP	40	24	5
TAP	40	48	7
TAP	40	96	0
TAP	40	120	0
TAP	40	144	2
TAP	40	192	3
TAP	40	216	3
TAP	40	240	5
TAP	40	288	6
STR	40	336	7
SI_	40	336	7	96	48	3
TAP	41	48	1
STR	41	96	2
SI_	41	96	2	96	48	6
TAP	41	144	3
TAP	41	192	4
TAP	41	240	5
TAP	41	288	6
HLD	41	336	7	96
TAP	42	48	0
HLD	42	96	0	192
STR	43	0	2
SI_	43	0	2	96	48	7
TAP	43	0	7
BRK	43	96	0
TAP	43	192	0
STR	43	192	5
SI_	43	192	5	96	48	0
BRK	43	288	7
TAP	44	0	7
TAP	44	48	1
TAP	44	96	3
HLD	44	144	5	96
HLD	44	240	7	96
TAP	45	0	0
STR	45	0	5
SI_	45	0	5	96	48	0
BRK	45	96	7
STR	45	192	2
SI_	45	192	2	96	48	7
TAP	45	192	7
BRK	45	288	0
TAP	46	0	0
TAP	46	48	6
TAP	46	96	4
HLD	46	144	2	144
STR	47	0	2
SI_	47	0	2	96	48	7
TAP	47	0	7
BRK	47	96	0
TAP	47	192	0
STR	47	192	5
SI_	47	192	5	96	48	0
BRK	47	288	7
TAP	48	0	7
TAP	48	48	1
TAP	48	96	3
HLD	48	144	5	96
HLD	48	240	7	96
TAP	49	0	0
STR	49	0	5
SI_	49	0	5	96	48	0
TAP	49	48	0
BRK	49	96	7
STR	49	192	2
SI_	49	192	2	96	48	7
TAP	49	192	7
TAP	49	240	7
BRK	49	288	0
TAP	50	0	0
TAP	50	48	6
TAP	50	96	4
HLD	50	144	2	96
BRK	50	240	0
TAP	51	0	0
STR	51	0	1
SI_	51	0	1	96	48	4
BRK	51	96	1
STR	51	96	5
SI_	51	96	5	96	48	0
STR	51	192	7
SI_	51	192	7	96	48	2
BRK	51	288	7
STR	52	0	1
SI_	52	0	1	96	48	5
TAP	52	48	3
TAP	52	96	5
STR	52	144	7
SI_	52	144	7	96	48	3
TAP	52	240	0
TAP	52	288	0
TAP	53	0	0
STR	53	0	1
SI_	53	0	1	96	48	4
BRK	53	96	1
STR	53	96	5
SI_	53	96	5	96	48	0
STR	53	192	7
SI_	53	192	7	96	48	2
BRK	53	288	7
STR	54	0	1
SI_	54	0	1	96	48	5
TAP	54	48	3
TAP	54	96	3
TAP	54	144	7
STR	54	192	7
SI_	54	192	7	96	48	3
TAP	54	240	5
TAP	54	288	5
TAP	54	336	1
TAP	55	0	0
STR	55	0	1
SI_	55	0	1	96	48	4
BRK	55	96	1
STR	55	96	5
SI_	55	96	5	96	48	0
STR	55	192	7
SI_	55	192	7	96	48	2
BRK	55	288	7
STR	56	0	1
SI_	56	0	1	96	48	5
TAP	56	48	3
TAP	56	96	5
STR	56	144	7
SI_	56	144	7	96	48	3
TAP	56	240	0
TAP	56	288	0
TAP	57	0	0
STR	57	0	1
SI_	57	0	1	96	48	4
TAP	57	48	6
BRK	57	96	1
STR	57	96	5
SI_	57	96	5	96	48	0
STR	57	192	7
SI_	57	192	7	96	48	2
TAP	57	240	7
BRK	57	288	7
TAP	58	0	0
TAP	58	48	7
TAP	58	96	6
HLD	58	144	5	96
HLD	58	240	3	144
TAP	59	0	0
TAP	59	48	1
TAP	59	96	2
TAP	59	144	3
TAP	59	168	4
TAP	59	192	3
HLD	59	216	2	48
HLD	59	264	1	48
TAP	59	312	7
TAP	59	336	7
TAP	59	360	6
TAP	60	0	6
TAP	60	48	0
TAP	60	96	2
TAP	60	144	4
HLD	60	192	6	48
TAP	60	240	5
TAP	60	264	5
TAP	60	288	4
TAP	60	336	3
STR	61	0	2
SI_	61	0	2	96	192	7
HLD	63	0	7	96
HLD	63	96	5	96
TAP	63	192	3
TAP	63	264	1
BRK	63	336	7

T_REC_TAP	308
T_REC_BRK	26
T_REC_XTP	0
T_REC_HLD	35
T_REC_XHO	0
T_REC_STR	41
T_REC_BST	0
T_REC_XST	0
T_REC_TTP	0
T_REC_THO	0
T_REC_SLD	41
T_REC_ALL	451
T_NUM_TAP	349
T_NUM_BRK	26
T_NUM_HLD	35
T_NUM_SLD	41
T_NUM_ALL	451
T_JUDGE_TAP	375
T_JUDGE_HLD	75
T_JUDGE_SLD	41
T_JUDGE_ALL	491
TTM_EACHPAIRS	44
TTM_SCR_TAP	174500
TTM_SCR_BRK	67600
TTM_SCR_HLD	35000
TTM_SCR_SLD	61500
TTM_SCR_ALL	338600
TTM_SCR_S	325950
TTM_SCR_SS	336000
TTM_RAT_ACV	10077

