VERSION	0.00.00	1.03.00
FES_MODE	0
BPM_DEF	140.000	140.000	140.000	140.000
MET_DEF	4	4
RESOLUTION	384
CLK_DEF	384
COMPATIBLE_CODE	MA2

BPM	0	0	140.000
MET	0	0	4	4

TAP	2	0	6
TAP	2	96	6
TAP	2	192	6
TAP	2	288	5
TAP	2	288	7
TAP	3	0	2
TAP	3	96	2
TAP	3	192	2
TAP	3	288	1
TAP	3	288	3
TAP	4	0	5
TAP	4	96	5
TAP	4	192	5
TAP	4	288	4
TAP	4	288	6
TAP	5	0	1
TAP	5	96	1
TAP	5	192	1
TAP	5	288	0
TAP	5	288	2
TAP	6	0	5
TAP	6	0	7
TAP	6	96	6
TAP	6	192	0
TAP	6	192	4
TAP	6	264	3
TAP	6	264	7
TAP	6	336	1
TAP	7	0	0
TAP	7	0	2
TAP	7	96	1
TAP	7	192	3
TAP	7	192	7
TAP	7	264	0
TAP	7	264	4
TAP	7	336	6
TAP	8	0	5
TAP	8	0	7
TAP	8	96	6
TAP	8	192	0
TAP	8	192	4
TAP	8	264	3
TAP	8	264	7
TAP	8	336	1
TAP	9	0	0
TAP	9	0	2
TAP	9	96	1
TAP	9	192	5
STR	9	192	7
SI_	9	192	7	96	48	3
TAP	10	0	6
TAP	10	48	5
TAP	10	48	7
TAP	10	144	4
TAP	10	192	3
TAP	10	240	2
TAP	10	288	3
TAP	10	336	2
TAP	11	0	1
TAP	11	48	0
TAP	11	48	2
TAP	11	144	3
TAP	11	192	4
TAP	11	240	5
TAP	11	288	4
TAP	11	336	5
TAP	12	0	6
TAP	12	48	5
TAP	12	48	7
TAP	12	144	4
TAP	12	192	3
TAP	12	240	2
TAP	12	288	3
TAP	12	336	2
TAP	13	0	1
TAP	13	48	0
HLD	13	96	0	96
TAP	13	144	1
HLD	13	192	1	96
TAP	13	240	2
TAP	13	288	2
TAP	14	0	1
TAP	14	48	0
TAP	14	48	2
TAP	14	144	3
TAP	14	192	4
TAP	14	240	5
TAP	14	288	4
TAP	14	336	5
TAP	15	0	6
TAP	15	48	5
TAP	15	48	7
TAP	15	144	4
TAP	15	192	3
TAP	15	240	2
TAP	15	288	3
TAP	15	336	2
TAP	16	0	1
TAP	16	48	0
TAP	16	48	2
TAP	16	144	3
TAP	16	192	4
TAP	16	240	5
TAP	16	288	4
TAP	16	336	5
TAP	17	0	6
TAP	17	48	7
HLD	17	96	7	96
TAP	17	144	6
STR	17	192	6
SCL	17	192	6	96	48	3
TAP	18	0	0
TAP	18	48	1
TAP	18	96	2
TAP	18	240	4
TAP	18	288	4
TAP	18	288	5
TAP	19	0	7
TAP	19	48	6
TAP	19	96	5
TAP	19	240	3
TAP	19	288	2
TAP	19	288	3
TAP	20	0	2
TAP	20	48	3
TAP	20	96	4
TAP	20	240	7
TAP	20	288	5
TAP	20	288	6
TAP	21	0	6
TAP	21	48	5
HLD	21	96	4	96
HLD	21	192	3	96
TAP	21	288	0
TAP	22	0	7
TAP	22	48	0
HLD	22	96	1	144
TAP	22	240	4
TAP	22	288	3
TAP	22	288	5
TAP	23	0	5
TAP	23	48	4
HLD	23	96	3	144
TAP	23	240	7
TAP	23	288	0
TAP	23	288	6
TAP	24	0	3
TAP	24	48	4
HLD	24	96	5	144
TAP	24	240	2
TAP	24	288	1
TAP	24	288	3
TAP	25	0	4
TAP	25	48	3
HLD	25	96	2	96
HLD	25	192	1	96
TAP	25	288	0
HLD	26	0	5	144
TAP	26	144	7
STR	26	192	0
SI_	26	192	0	96	48	4
TAP	26	192	6
HLD	27	0	2	144
TAP	27	144	0
TAP	27	192	1
STR	27	192	7
SI_	27	192	7	96	48	3
HLD	28	0	1	96
STR	28	96	2
SI_	28	96	2	96	48	7
STR	28	192	0
SI_	28	192	0	96	48	4
HLD	29	0	6	96
STR	29	96	5
SI_	29	96	5	96	48	0
STR	29	192	7
SI_	29	192	7	96	48	3
HLD	30	0	6	144
TAP	30	144	4
STR	30	192	3
SI_	30	192	3	96	48	7
TAP	30	192	5
HLD	31	0	1	144
TAP	31	144	3
TAP	31	192	2
STR	31	192	4
SI_	31	192	4	96	48	0
STR	32	0	6
SI_	32	0	6	96	48	1
STR	32	96	2
SI_	32	96	2	96	48	5
STR	32	192	0
SI_	32	192	0	96	48	3
STR	32	288	4
SI_	32	288	4	96	192	7
STR	34	192	2
SI_	34	192	2	96	24	7
STR	35	0	0
SI_	35	0	0	96	48	4
TAP	35	0	7
TAP	35	192	1
TAP	35	240	3
TAP	35	288	2
TAP	35	288	4
TAP	36	0	6
TAP	36	48	4
TAP	36	96	3
TAP	36	96	5
HLD	36	144	2	96
TAP	36	240	1
TAP	36	288	1
HLD	36	336	0	96
TAP	37	48	7
TAP	37	96	7
TAP	37	144	6
TAP	37	192	6
STR	37	240	5
SCL	37	240	5	96	48	2
STR	38	192	5
SI_	38	192	5	96	24	0
TAP	39	0	0
STR	39	0	7
SI_	39	0	7	96	48	3
TAP	39	192	6
TAP	39	240	4
TAP	39	288	3
TAP	39	288	5
TAP	40	0	1
TAP	40	48	3
TAP	40	96	2
TAP	40	96	4
HLD	40	144	5	96
TAP	40	240	6
TAP	40	288	6
STR	40	336	7
SCR	40	336	7	96	48	2
TAP	41	144	3
TAP	41	192	7
TAP	41	240	6
TAP	41	288	5
STR	41	336	3
SI_	41	336	3	96	48	7
STR	42	96	4
SI_	42	96	4	96	48	0
BRK	42	288	7
TAP	43	0	3
TAP	43	0	6
TAP	43	96	0
TAP	43	96	1
TAP	43	192	1
TAP	43	192	4
TAP	43	288	6
TAP	43	288	7
STR	44	0	6
SI_	44	0	6	96	48	1
STR	44	192	2
SI_	44	192	2	96	48	5
TAP	45	0	2
TAP	45	0	7
TAP	45	96	4
TAP	45	96	5
TAP	45	192	0
TAP	45	192	5
TAP	45	288	2
TAP	45	288	3
STR	46	0	0
SI_	46	0	0	96	48	4
STR	46	192	7
SI_	46	192	7	96	48	3
TAP	47	0	4
TAP	47	0	6
TAP	47	96	0
TAP	47	96	1
TAP	47	192	1
TAP	47	192	3
TAP	47	288	6
TAP	47	288	7
STR	48	0	1
SCR	48	0	1	96	48	4
STR	48	192	6
SCL	48	192	6	96	48	3
TAP	49	0	0
TAP	49	0	2
TAP	49	96	4
TAP	49	96	5
TAP	49	192	5
TAP	49	192	7
TAP	49	288	2
TAP	49	288	3
STR	50	0	1
SCR	50	0	1	96	96	4
STR	50	96	4
SCR	50	96	4	96	96	7
TAP	50	192	7
BRK	50	288	0
TAP	51	0	6
HLD	51	0	7	48
HLD	51	48	0	144
TAP	51	96	1
HLD	51	192	7	96
TAP	51	240	6
HLD	51	288	0	384
TAP	52	0	1
TAP	52	96	6
TAP	52	192	1
TAP	52	288	6
HLD	53	0	0	48
TAP	53	0	1
HLD	53	48	7	144
TAP	53	96	6
HLD	53	192	0	96
TAP	53	240	1
HLD	53	288	7	384
STR	54	0	0
SI_	54	0	0	96	96	4
TAP	55	0	5
HLD	55	0	6	48
HLD	55	48	1	144
TAP	55	96	2
HLD	55	192	6	96
TAP	55	240	5
HLD	55	288	1	96
STR	56	0	7
SI_	56	0	7	96	48	3
STR	56	192	4
SI_	56	192	4	96	48	0
HLD	57	0	1	48
TAP	57	0	2
HLD	57	48	6	144
TAP	57	96	5
HLD	57	192	1	96
TAP	57	240	2
HLD	57	288	6	96
STR	58	0	0
SI_	58	0	0	96	384	4
STR	59	0	6
SI_	59	0	6	96	192	2
STR	59	192	7
SI_	59	192	7	96	192	3
STR	60	0	0
SI_	60	0	0	96	96	4
STR	60	192	6
SI_	60	192	6	96	48	3
STR	60	336	1
SI_	60	336	1	96	48	4
STR	61	0	7
SI_	61	0	7	96	480	3
TAP	63	0	0
TAP	63	0	5
TAP	63	96	4
TAP	63	96	6
TAP	63	192	2
TAP	63	192	7
TAP	63	264	1
TAP	63	264	3
BRK	63	336	2
BRK	63	336	5

T_REC_TAP	238
T_REC_BRK	4
T_REC_XTP	0
T_REC_HLD	35
T_REC_XHO	0
T_REC_STR	40
T_REC_BST	0
T_REC_XST	0
T_REC_TTP	0
T_REC_THO	0
T_REC_SLD	40
T_REC_ALL	357
T_NUM_TAP	278
T_NUM_BRK	4
T_NUM_HLD	35
T_NUM_SLD	40
T_NUM_ALL	357
T_JUDGE_TAP	282
T_JUDGE_HLD	89
T_JUDGE_SLD	40
T_JUDGE_ALL	411
TTM_EACHPAIRS	62
TTM_SCR_TAP	139000
TTM_SCR_BRK	10400
TTM_SCR_HLD	35000
TTM_SCR_SLD	60000
TTM_SCR_ALL	244400
TTM_SCR_S	236700
TTM_SCR_SS	244000
TTM_RAT_ACV	10016

