VERSION	0.00.00	1.03.00
FES_MODE	0
BPM_DEF	140.000	140.000	140.000	140.000
MET_DEF	4	4
RESOLUTION	384
CLK_DEF	384
COMPATIBLE_CODE	MA2

BPM	0	0	140.000
MET	0	0	4	4

TAP	2	0	1
TAP	2	96	0
TAP	2	192	1
TAP	2	288	0
TAP	2	288	1
TAP	3	0	0
TAP	3	96	7
TAP	3	192	0
TAP	3	288	0
TAP	3	288	7
TAP	4	0	6
TAP	4	96	7
TAP	4	192	6
TAP	4	288	6
TAP	4	288	7
TAP	5	0	0
TAP	5	96	7
TAP	5	192	0
TAP	5	192	7
TAP	6	0	0
TAP	6	0	7
TAP	6	96	0
TAP	6	96	7
TAP	6	192	0
TAP	6	192	7
TAP	7	0	4
TAP	7	0	5
TAP	7	96	4
TAP	7	96	5
TAP	7	192	4
TAP	7	192	5
TAP	8	0	2
TAP	8	0	3
TAP	8	96	2
TAP	8	96	3
TAP	8	192	2
TAP	8	192	3
TAP	9	0	6
TAP	9	0	7
TAP	9	96	0
TAP	9	96	1
TAP	9	192	2
TAP	9	192	3
BRK	9	288	4
BRK	9	288	5
TAP	10	0	3
TAP	10	96	3
TAP	10	192	3
TAP	11	0	2
TAP	11	96	2
TAP	11	192	2
TAP	12	0	1
TAP	12	96	1
TAP	12	192	1
TAP	13	0	1
TAP	13	96	0
TAP	13	192	7
TAP	13	288	6
STR	14	0	0
SI_	14	0	0	96	192	3
STR	15	0	4
SI_	15	0	4	96	192	7
STR	16	0	1
SI_	16	0	1	96	192	6
STR	17	0	5
SI_	17	0	5	96	192	2
TAP	18	0	0
TAP	18	96	0
TAP	18	192	0
TAP	18	288	0
TAP	19	96	1
TAP	19	192	1
TAP	19	288	1
TAP	20	0	2
TAP	20	96	2
TAP	20	192	2
TAP	20	288	2
TAP	21	96	3
TAP	21	192	3
TAP	21	288	3
TAP	22	0	4
TAP	22	96	4
TAP	22	192	4
TAP	22	288	4
TAP	23	96	5
TAP	23	192	5
TAP	23	288	5
TAP	24	0	6
TAP	24	96	6
TAP	24	192	6
TAP	24	288	6
TAP	25	96	7
TAP	25	192	7
TAP	25	288	7
TAP	26	0	0
TAP	26	48	0
TAP	26	96	0
TAP	26	144	0
TAP	26	192	0
TAP	26	336	7
TAP	27	48	7
TAP	27	144	7
TAP	27	192	7
TAP	28	0	1
TAP	28	96	1
TAP	28	192	1
TAP	28	288	1
TAP	28	288	6
TAP	29	0	6
TAP	29	96	6
TAP	29	192	6
TAP	29	288	6
TAP	30	0	7
TAP	30	48	7
TAP	30	96	7
TAP	30	144	7
TAP	30	192	7
TAP	30	336	0
TAP	31	48	0
TAP	31	144	0
TAP	31	192	0
TAP	32	0	6
TAP	32	96	7
TAP	32	192	0
HLD	32	288	1	480
TAP	34	192	0
TAP	34	192	7
TAP	34	288	0
TAP	34	288	7
TAP	35	0	6
TAP	35	96	6
TAP	35	192	6
TAP	35	288	4
TAP	35	288	5
TAP	36	0	5
TAP	36	96	5
TAP	36	192	5
TAP	36	288	2
TAP	36	288	3
TAP	37	0	2
TAP	37	96	2
TAP	37	192	2
TAP	37	288	0
TAP	37	288	1
TAP	38	0	1
TAP	38	96	1
TAP	38	192	0
TAP	38	192	1
TAP	38	288	6
TAP	38	288	7
TAP	39	0	7
TAP	39	96	0
TAP	39	192	1
TAP	39	288	2
TAP	39	288	3
TAP	40	0	4
TAP	40	96	5
TAP	40	192	6
TAP	40	288	0
TAP	40	288	7
TAP	41	0	1
TAP	41	96	2
TAP	41	192	3
TAP	41	288	3
TAP	41	288	4
STR	42	0	3
SI_	42	0	3	96	96	0
STR	42	0	4
SI_	42	0	4	96	96	7
TAP	43	0	6
BRK	43	96	0
BRK	43	96	7
TAP	43	192	1
BRK	43	288	0
BRK	43	288	7
TAP	44	0	6
TAP	44	96	7
TAP	44	192	0
TAP	44	288	1
TAP	45	0	2
BRK	45	96	3
BRK	45	96	4
TAP	45	192	5
BRK	45	288	3
BRK	45	288	4
STR	46	0	0
SI_	46	0	0	96	96	3
STR	46	0	7
SI_	46	0	7	96	96	4
TAP	47	0	2
BRK	47	96	6
BRK	47	96	7
TAP	47	192	5
BRK	47	288	0
BRK	47	288	1
TAP	48	0	1
TAP	48	96	0
TAP	48	192	7
TAP	48	288	6
TAP	49	0	6
TAP	49	96	0
TAP	49	96	7
TAP	49	192	1
TAP	49	288	0
TAP	49	288	7
TAP	50	0	7
TAP	50	96	7
TAP	50	192	0
TAP	50	288	0
TAP	51	0	5
BRK	51	96	6
BRK	51	96	7
TAP	51	192	2
BRK	51	288	0
BRK	51	288	1
TAP	52	0	6
TAP	52	96	7
TAP	52	192	0
TAP	52	288	1
TAP	53	0	2
BRK	53	96	0
BRK	53	96	1
TAP	53	192	5
BRK	53	288	6
BRK	53	288	7
STR	54	0	0
SI_	54	0	0	96	96	3
STR	54	0	7
SI_	54	0	7	96	96	4
TAP	55	0	0
TAP	55	0	1
BRK	55	96	2
BRK	55	96	7
TAP	55	192	6
TAP	55	192	7
BRK	55	288	0
BRK	55	288	5
TAP	56	0	2
TAP	56	96	3
TAP	56	192	4
TAP	56	288	5
TAP	57	0	6
TAP	57	96	0
TAP	57	96	7
TAP	57	192	1
TAP	57	288	0
TAP	57	288	7
TAP	58	0	0
TAP	58	0	7
TAP	58	288	0
TAP	58	288	7
TAP	59	0	0
TAP	59	0	1
TAP	59	288	0
TAP	59	288	7
TAP	60	0	6
TAP	60	0	7
TAP	60	288	0
TAP	60	288	7
HLD	61	0	0	768
HLD	61	0	7	768

T_REC_TAP	212
T_REC_BRK	26
T_REC_XTP	0
T_REC_HLD	3
T_REC_XHO	0
T_REC_STR	10
T_REC_BST	0
T_REC_XST	0
T_REC_TTP	0
T_REC_THO	0
T_REC_SLD	10
T_REC_ALL	261
T_NUM_TAP	222
T_NUM_BRK	26
T_NUM_HLD	3
T_NUM_SLD	10
T_NUM_ALL	261
T_JUDGE_TAP	248
T_JUDGE_HLD	42
T_JUDGE_SLD	10
T_JUDGE_ALL	300
TTM_EACHPAIRS	56
TTM_SCR_TAP	111000
TTM_SCR_BRK	67600
TTM_SCR_HLD	3000
TTM_SCR_SLD	15000
TTM_SCR_ALL	196600
TTM_SCR_S	188200
TTM_SCR_SS	194000
TTM_RAT_ACV	10134

