VERSION	0.00.00	1.03.00
FES_MODE	0
BPM_DEF	140.000	140.000	140.000	140.000
MET_DEF	4	4
RESOLUTION	384
CLK_DEF	384
COMPATIBLE_CODE	MA2

BPM	0	0	140.000
MET	0	0	4	4

TAP	6	0	0
TAP	6	192	0
TAP	7	0	1
TAP	7	192	1
TAP	8	0	2
TAP	8	192	2
BRK	9	0	3
TAP	10	0	3
TAP	11	0	4
TAP	12	0	3
HLD	13	0	4	192
TAP	14	0	2
TAP	15	0	5
TAP	16	0	2
HLD	17	0	5	192
TAP	18	0	3
TAP	18	192	3
TAP	19	0	2
TAP	19	192	2
TAP	20	0	1
TAP	20	192	1
STR	21	0	0
SI_	21	0	0	96	96	3
TAP	22	0	4
TAP	22	192	4
TAP	23	0	5
TAP	23	192	5
TAP	24	0	6
TAP	24	192	6
HLD	25	0	7	192
TAP	26	0	0
TAP	26	96	0
TAP	26	192	0
TAP	27	0	7
TAP	27	96	7
TAP	27	192	7
TAP	28	0	1
TAP	28	192	1
TAP	29	0	6
TAP	29	192	6
TAP	30	0	1
TAP	30	96	1
TAP	30	192	1
TAP	31	0	6
TAP	31	96	6
TAP	31	192	6
TAP	32	0	0
TAP	32	192	7
HLD	33	0	0	576
HLD	33	0	7	576
TAP	35	0	0
TAP	35	192	7
TAP	36	0	0
TAP	36	192	7
TAP	36	288	7
TAP	37	0	0
TAP	37	192	1
TAP	38	0	2
TAP	38	192	3
TAP	38	288	3
TAP	39	0	4
TAP	39	192	3
TAP	40	0	4
TAP	40	192	3
TAP	40	288	3
TAP	41	0	4
TAP	41	192	5
TAP	42	0	6
BRK	42	192	7
TAP	43	0	0
TAP	43	96	0
TAP	43	192	1
TAP	43	288	1
TAP	44	0	0
TAP	44	192	0
TAP	45	0	7
TAP	45	96	7
TAP	45	192	6
TAP	45	288	6
TAP	46	0	5
BRK	46	192	4
TAP	47	0	3
TAP	47	96	3
TAP	47	192	4
TAP	47	288	4
TAP	48	0	3
TAP	48	192	2
TAP	49	0	1
TAP	49	96	1
TAP	49	192	0
TAP	49	288	0
HLD	50	0	7	192
TAP	51	0	0
TAP	51	96	0
TAP	51	192	7
TAP	51	288	7
HLD	52	0	0	192
TAP	53	0	7
TAP	53	96	7
TAP	53	192	0
TAP	53	288	0
STR	54	0	7
SI_	54	0	7	96	96	4
TAP	55	0	3
TAP	55	96	3
TAP	55	192	4
TAP	55	288	4
HLD	56	0	3	192
TAP	57	0	2
TAP	57	96	2
TAP	57	192	1
TAP	57	288	1
STR	58	0	0
SI_	58	0	0	96	96	3
STR	59	0	7
SI_	59	0	7	96	96	4
STR	60	0	0
SI_	60	0	0	96	96	3
HLD	61	0	7	672
TAP	63	0	0
TAP	63	0	7
TAP	63	192	1
TAP	63	192	6
BRK	64	0	0
BRK	64	0	7

T_REC_TAP	101
T_REC_BRK	5
T_REC_XTP	0
T_REC_HLD	9
T_REC_XHO	0
T_REC_STR	5
T_REC_BST	0
T_REC_XST	0
T_REC_TTP	0
T_REC_THO	0
T_REC_SLD	5
T_REC_ALL	125
T_NUM_TAP	106
T_NUM_BRK	5
T_NUM_HLD	9
T_NUM_SLD	5
T_NUM_ALL	125
T_JUDGE_TAP	111
T_JUDGE_HLD	62
T_JUDGE_SLD	5
T_JUDGE_ALL	178
TTM_EACHPAIRS	4
TTM_SCR_TAP	53000
TTM_SCR_BRK	13000
TTM_SCR_HLD	9000
TTM_SCR_SLD	7500
TTM_SCR_ALL	82500
TTM_SCR_S	79550
TTM_SCR_SS	82000
TTM_RAT_ACV	10060

