VERSION	0.00.00	1.03.00
FES_MODE	0
BPM_DEF	129.000	129.000	129.000	129.000
MET_DEF	4	4
RESOLUTION	384
CLK_DEF	384
COMPATIBLE_CODE	MA2

BPM	0	0	129.000
MET	0	0	4	4

HLD	2	0	4	48
HLD	2	0	6	48
HLD	2	72	1	48
HLD	2	72	3	48
STR	2	144	2
SCR	2	144	2	96	48	5
TAP	2	144	5
TAP	2	288	6
TAP	2	312	7
TAP	2	336	0
TAP	2	360	1
HLD	3	24	4	48
HLD	3	24	6	48
HLD	3	96	1	48
HLD	3	96	3	48
HLD	3	168	2	72
HLD	3	168	5	72
BRK	3	288	7
HLD	4	0	1	72
TAP	4	72	3
TAP	4	96	2
TAP	4	144	2
TAP	4	192	5
TAP	4	216	4
TAP	4	240	5
BRK	4	288	0
BRK	4	288	7
TAP	5	0	1
TAP	5	0	3
HLD	5	48	1	48
HLD	5	48	3	48
TAP	5	120	4
TAP	5	120	6
HLD	5	168	2	72
HLD	5	168	5	72
BRK	5	288	3
BRK	5	288	4
HLD	6	0	1	48
HLD	6	0	3	48
HLD	6	72	4	48
HLD	6	72	6	48
TAP	6	144	2
STR	6	144	5
SCL	6	144	5	96	48	2
TAP	6	288	1
TAP	6	312	0
TAP	6	336	7
TAP	6	360	6
HLD	7	24	1	48
HLD	7	24	3	48
HLD	7	96	4	48
HLD	7	96	6	48
HLD	7	168	2	72
HLD	7	168	5	72
BRK	7	288	0
TAP	8	0	3
TAP	8	0	4
TAP	8	24	3
STR	8	24	4
SCR	8	24	4	96	96	0
STR	8	96	7
SCR	8	96	7	96	96	3
STR	8	168	2
SCR	8	168	2	96	96	6
STR	8	240	5
SCR	8	240	5	96	96	1
STR	8	312	0
SCR	8	312	0	96	96	4
STR	9	0	3
SCR	9	0	3	96	96	7
STR	9	72	6
SCR	9	72	6	96	96	2
STR	9	144	1
SCR	9	144	1	96	72	4
TAP	9	216	4
BRK	9	288	7
STR	10	0	1
SCL	10	0	1	96	864	6
TAP	10	0	6
BRK	10	72	1
BRK	10	72	6
TAP	10	156	6
TAP	10	168	5
TAP	10	180	4
HLD	10	192	3	48
TAP	10	288	1
TAP	10	300	2
TAP	10	312	3
HLD	10	324	4	60
TAP	11	48	5
TAP	11	60	4
TAP	11	72	3
TAP	11	84	2
TAP	11	144	3
HLD	11	168	3	216
TAP	12	48	3
TAP	12	72	3
TAP	12	120	4
TAP	12	168	5
TAP	12	192	5
TAP	12	240	4
BRK	12	288	0
BRK	12	288	7
TAP	13	0	1
TAP	13	0	4
TAP	13	48	1
TAP	13	48	4
TAP	13	96	3
TAP	13	120	2
TAP	13	168	2
TAP	13	192	3
TAP	13	216	2
TAP	13	264	2
TAP	13	288	3
TAP	13	336	4
TAP	14	0	3
TAP	14	0	6
TAP	14	48	3
TAP	14	48	6
TAP	14	96	4
TAP	14	120	5
TAP	14	168	5
TAP	14	192	4
TAP	14	216	5
TAP	14	264	5
TAP	14	288	4
TAP	14	336	3
TAP	15	0	1
TAP	15	0	4
TAP	15	48	1
TAP	15	48	4
TAP	15	96	3
TAP	15	120	2
TAP	15	168	2
TAP	15	192	3
TAP	15	216	2
TAP	15	264	2
HLD	15	288	3	96
BRK	16	0	1
BRK	16	72	4
BRK	16	72	6
HLD	16	144	1	96
HLD	16	144	6	96
TAP	16	288	3
TAP	16	288	4
STR	17	0	0
SCR	17	0	0	96	48	4
TAP	17	0	7
TAP	17	72	6
TAP	17	96	6
TAP	17	144	7
STR	17	192	0
SCL	17	192	0	96	48	4
TAP	17	264	2
TAP	17	288	2
TAP	17	336	1
STR	18	0	0
SUR	18	0	0	96	48	4
TAP	18	72	6
TAP	18	96	6
TAP	18	144	7
STR	18	192	0
SUL	18	192	0	96	48	4
TAP	18	264	2
TAP	18	288	2
TAP	18	336	1
STR	19	0	0
SI_	19	0	0	96	48	4
TAP	19	72	6
TAP	19	96	6
TAP	19	144	7
STR	19	192	0
SI_	19	192	0	96	48	4
TAP	19	264	2
TAP	19	288	2
TAP	19	336	1
TAP	20	0	0
TAP	20	48	4
TAP	20	72	3
TAP	20	120	1
TAP	20	120	6
TAP	20	168	2
TAP	20	192	3
TAP	20	216	3
TAP	20	240	3
HLD	20	264	2	48
BRK	20	312	7
TAP	21	0	0
STR	21	0	7
SUL	21	0	7	96	48	3
TAP	21	72	1
TAP	21	96	1
TAP	21	144	0
STR	21	192	7
SUR	21	192	7	96	48	3
TAP	21	264	5
TAP	21	288	5
TAP	21	336	6
STR	22	0	7
SI_	22	0	7	96	48	3
TAP	22	72	1
TAP	22	96	1
TAP	22	144	0
STR	22	192	7
SF_	22	192	7	96	48	3
BRK	22	288	7
TAP	23	0	0
TAP	23	0	2
TAP	23	72	4
STR	23	72	6
SCR	23	72	6	96	120	4
HLD	23	144	2	144
STR	24	0	0
SCR	24	0	0	96	144	0
STR	24	48	3
SUR	24	48	3	96	96	0
TAP	24	288	1
TAP	24	312	1
TAP	24	360	3
TAP	25	0	2
TAP	25	48	2
TAP	25	48	3
TAP	25	96	5
TAP	25	144	4
TAP	25	144	5
TAP	25	192	2
TAP	25	240	2
TAP	25	240	3
TAP	25	288	4
TAP	25	312	3
STR	26	0	7
SCL	26	0	7	96	144	7
STR	26	48	4
SUL	26	48	4	96	96	7
TAP	26	288	6
TAP	26	312	6
TAP	26	360	4
TAP	27	0	5
TAP	27	48	4
TAP	27	48	5
TAP	27	96	2
TAP	27	144	2
TAP	27	144	3
TAP	27	192	5
TAP	27	240	4
TAP	27	240	5
HLD	27	288	3	96
STR	28	0	6
SCR	28	0	6	96	48	1
TAP	28	96	4
TAP	28	96	6
STR	28	144	4
SCR	28	144	4	96	96	3
STR	29	0	1
SCL	29	0	1	96	48	6
TAP	29	96	1
TAP	29	96	3
STR	29	144	3
SCL	29	144	3	96	96	4
TAP	30	0	0
HLD	30	24	0	264
TAP	30	96	6
TAP	30	168	2
TAP	30	240	5
TAP	30	288	5
TAP	30	336	0
TAP	30	336	4
TAP	31	0	3
TAP	31	0	7
HLD	31	24	3	264
TAP	31	24	7
TAP	31	96	5
TAP	31	168	1
TAP	31	240	4
TAP	31	288	4
TAP	31	336	3
TAP	31	336	7
TAP	32	0	0
TAP	32	0	4
TAP	32	48	2
TAP	32	48	3
TAP	32	120	3
TAP	32	120	7
TAP	32	168	4
TAP	32	168	5
TAP	32	240	3
STR	32	240	4
SCR	32	240	4	96	96	3
TAP	32	288	3
TAP	32	288	4
TAP	33	96	0
TAP	33	128	0
TAP	33	160	0
TAP	33	192	0
STR	33	192	7
SI_	33	192	7	96	48	2
STR	33	288	0
SI_	33	288	0	96	48	5
TAP	33	288	7
BRK	34	0	0
BRK	34	0	7
TAP	34	96	7
TAP	34	144	3
TAP	34	144	7
TAP	34	168	2
STR	34	168	6
SCR	34	168	6	96	72	3
TAP	34	192	1
HLD	34	192	5	144
TAP	34	264	6
TAP	35	0	6
TAP	35	0	7
TAP	35	96	0
TAP	35	96	4
TAP	35	144	0
TAP	35	144	4
STR	35	168	1
SCL	35	168	1	96	72	4
TAP	35	168	5
HLD	35	192	2	144
TAP	35	192	6
TAP	35	264	1
TAP	36	0	0
TAP	36	0	1
TAP	36	96	3
TAP	36	96	7
TAP	36	144	3
TAP	36	144	7
TAP	36	168	2
STR	36	168	6
SCR	36	168	6	96	72	3
TAP	36	192	1
HLD	36	192	5	144
TAP	36	264	6
TAP	37	0	6
TAP	37	0	7
TAP	37	48	2
TAP	37	72	3
TAP	37	120	5
TAP	37	144	4
TAP	37	192	1
TAP	37	240	2
TAP	37	240	3
TAP	37	288	6
TAP	37	336	4
TAP	37	336	5
BRK	38	0	1
BRK	38	0	6
HLD	38	72	7	48
TAP	38	120	0
TAP	38	144	7
TAP	38	192	1
TAP	38	192	6
HLD	38	240	2	48
HLD	38	288	0	48
HLD	38	336	7	48
HLD	39	0	5	96
TAP	39	96	2
TAP	39	144	4
TAP	39	168	3
TAP	39	192	4
TAP	39	264	1
TAP	39	264	6
TAP	39	336	3
STR	39	336	4
SCR	39	336	4	96	144	3
TAP	40	0	3
TAP	40	0	4
STR	40	288	2
SUL	40	288	2	96	48	5
TAP	40	336	3
TAP	40	336	4
TAP	41	0	6
TAP	41	24	7
TAP	41	48	0
TAP	41	72	1
TAP	41	120	3
TAP	41	120	4
BST	41	192	0
SI_	41	192	0	96	48	5
BRK	41	192	7
BRK	41	288	0
BST	41	288	7
SI_	41	288	7	96	48	2
BRK	42	0	0
BRK	42	0	7
TAP	42	96	0
TAP	42	144	0
TAP	42	144	4
STR	42	168	1
SCL	42	168	1	96	72	3
TAP	42	168	5
HLD	42	192	2	144
TAP	42	192	6
TAP	42	264	1
TAP	43	0	0
TAP	43	0	1
TAP	43	96	3
TAP	43	96	7
TAP	43	144	3
TAP	43	144	7
TAP	43	168	2
STR	43	168	6
SCR	43	168	6	96	72	4
TAP	43	192	1
HLD	43	192	5	144
TAP	43	264	6
TAP	44	0	6
TAP	44	0	7
TAP	44	96	0
TAP	44	96	4
TAP	44	144	0
TAP	44	144	4
STR	44	168	1
SCL	44	168	1	96	72	3
TAP	44	168	5
HLD	44	192	2	144
TAP	44	192	6
TAP	44	264	1
TAP	45	0	0
TAP	45	0	1
TAP	45	96	1
TAP	45	96	6
TAP	45	144	2
STR	45	144	5
SUR	45	144	5	96	48	2
TAP	45	192	3
TAP	45	192	4
TAP	45	240	1
TAP	45	264	1
TAP	45	312	0
TAP	45	312	7
BRK	46	0	2
BRK	46	0	4
TAP	46	48	0
BRK	46	72	3
BRK	46	72	5
TAP	46	120	7
BRK	46	144	2
BRK	46	144	4
TAP	46	192	0
TAP	46	204	1
TAP	46	216	2
TAP	46	228	3
TAP	46	288	7
TAP	46	300	6
TAP	46	312	5
TAP	46	324	4
BRK	47	0	1
BRK	47	0	6
TAP	47	48	0
TAP	47	48	1
BRK	47	72	4
BRK	47	72	7
TAP	47	120	6
TAP	47	120	7
BRK	47	144	0
BRK	47	144	3
TAP	47	240	1
TAP	47	240	2
TAP	47	288	0
TAP	47	288	7
TAP	47	336	5
TAP	47	336	6
TAP	48	0	3
STR	48	0	4
SUL	48	0	4	96	96	3
STR	48	96	3
SCL	48	96	3	96	96	4
TAP	48	96	4
TAP	48	336	3
TAP	48	336	4
TAP	49	0	1
TAP	49	0	6
TAP	49	48	2
TAP	49	72	2
TAP	49	120	4
TAP	49	120	5
TAP	49	168	1
TAP	49	168	2
TAP	49	216	7
TAP	49	240	0
TAP	49	264	6
TAP	49	288	1
TAP	49	312	5
TAP	49	336	2
TAP	49	360	4
TAP	50	0	3
BRK	50	96	1
BRK	50	96	6
TAP	50	192	2
TAP	50	216	3
TAP	50	240	2
HLD	50	264	5	48
TAP	50	312	3
TAP	50	336	4
STR	50	360	3
SCL	50	360	3	96	504	4
TAP	51	192	6
TAP	51	264	5
TAP	51	336	4
TAP	52	288	0
TAP	52	300	1
TAP	52	312	2
TAP	52	324	3
TAP	52	336	4
TAP	52	348	5
TAP	52	360	6
TAP	52	372	7
BRK	53	0	0
TAP	53	96	2
TAP	53	96	5
STR	53	168	1
SI_	53	168	1	96	48	5
STR	53	168	6
SI_	53	168	6	96	48	0
TAP	53	264	1
TAP	53	264	6
STR	54	0	3
SCL	54	0	3	96	48	0
STR	54	0	7
SCL	54	0	7	96	48	4
TAP	54	24	0
TAP	54	24	4
TAP	54	96	3
TAP	54	96	7
STR	54	168	3
SCR	54	168	3	96	48	6
STR	54	168	7
SCR	54	168	7	96	48	2
TAP	54	264	3
TAP	54	264	7
STR	55	0	2
SI_	55	0	2	96	48	6
STR	55	0	5
SI_	55	0	5	96	48	3
TAP	55	96	2
TAP	55	96	5
STR	55	168	2
SI_	55	168	2	96	48	6
STR	55	168	7
SI_	55	168	7	96	48	1
TAP	55	264	2
TAP	55	264	7
STR	56	0	3
SCL	56	0	3	96	48	0
STR	56	0	7
SCL	56	0	7	96	48	4
TAP	56	24	0
TAP	56	24	4
TAP	56	96	3
TAP	56	96	7
STR	56	168	3
SCR	56	168	3	96	48	6
STR	56	168	7
SCR	56	168	7	96	48	2
TAP	56	264	3
TAP	56	264	7
STR	57	0	2
SI_	57	0	2	96	48	4
STR	57	0	5
SI_	57	0	5	96	48	1
TAP	57	96	2
TAP	57	96	5
STR	57	168	0
SI_	57	168	0	96	48	6
STR	57	168	5
SI_	57	168	5	96	48	1
TAP	57	264	0
TAP	57	264	5
STR	58	0	3
SCL	58	0	3	96	48	0
STR	58	0	7
SCL	58	0	7	96	48	4
TAP	58	24	0
TAP	58	24	4
BRK	58	96	3
BRK	58	96	7
STR	58	168	3
SCR	58	168	3	96	48	6
STR	58	168	7
SCR	58	168	7	96	48	2
BRK	58	264	3
BRK	58	264	7
STR	59	0	1
SCR	59	0	1	96	48	4
STR	59	0	4
SCR	59	0	4	96	48	7
TAP	59	96	1
STR	59	96	4
SCL	59	96	4	96	48	0
SUL	59	96	4	96	48	7
BRK	59	168	4
TAP	59	312	5
TAP	59	336	1
TAP	59	360	4
TAP	60	0	0
TAP	60	24	5
TAP	60	48	1
TAP	60	72	6
TAP	60	96	2
TAP	60	120	7
TAP	60	144	3
TAP	60	168	0
TAP	60	192	4
HLD	60	216	1	84
HLD	60	240	5	60
BRK	60	312	0
BRK	60	312	4
BRK	60	324	3
BRK	60	324	7
BRK	60	336	2
BRK	60	336	6
BRK	60	348	1
BRK	60	348	5

T_REC_TAP	368
T_REC_BRK	52
T_REC_XTP	0
T_REC_HLD	50
T_REC_XHO	0
T_REC_STR	70
T_REC_BST	2
T_REC_XST	0
T_REC_TTP	0
T_REC_THO	0
T_REC_SLD	73
T_REC_ALL	615
T_NUM_TAP	438
T_NUM_BRK	54
T_NUM_HLD	50
T_NUM_SLD	73
T_NUM_ALL	615
T_JUDGE_TAP	492
T_JUDGE_HLD	93
T_JUDGE_SLD	73
T_JUDGE_ALL	658
TTM_EACHPAIRS	152
TTM_SCR_TAP	219000
TTM_SCR_BRK	140400
TTM_SCR_HLD	50000
TTM_SCR_SLD	109500
TTM_SCR_ALL	518900
TTM_SCR_S	498100
TTM_SCR_SS	513500
TTM_RAT_ACV	10105

