VERSION	0.00.00	1.03.00
FES_MODE	0
BPM_DEF	129.000	129.000	129.000	129.000
MET_DEF	4	4
RESOLUTION	384
CLK_DEF	384
COMPATIBLE_CODE	MA2

BPM	0	0	129.000
MET	0	0	4	4

TAP	2	0	3
TAP	2	0	4
TAP	2	72	0
TAP	2	72	7
STR	2	144	2
SCR	2	144	2	96	48	5
TAP	2	144	5
TAP	2	288	6
TAP	2	312	7
TAP	2	336	0
TAP	2	360	1
TAP	3	24	2
TAP	3	24	3
TAP	3	96	4
TAP	3	96	5
TAP	3	168	0
TAP	3	168	7
TAP	3	288	4
TAP	3	336	0
TAP	4	0	3
TAP	4	0	7
TAP	4	48	2
TAP	4	72	6
STR	4	96	0
SUL	4	96	0	96	96	7
STR	4	192	7
SCL	4	192	7	96	96	0
TAP	5	0	6
TAP	5	24	7
TAP	5	48	0
TAP	5	72	1
TAP	5	120	3
TAP	5	120	4
TAP	5	168	1
TAP	5	168	6
TAP	5	288	0
TAP	5	288	1
TAP	5	336	6
TAP	5	336	7
TAP	6	0	3
TAP	6	0	4
TAP	6	72	0
TAP	6	72	7
TAP	6	144	2
STR	6	144	5
SCL	6	144	5	96	48	2
TAP	6	288	1
TAP	6	312	0
TAP	6	336	7
TAP	6	360	6
TAP	7	24	4
TAP	7	24	5
TAP	7	96	2
TAP	7	96	3
TAP	7	168	0
TAP	7	168	7
TAP	7	288	3
TAP	7	336	7
TAP	8	0	0
TAP	8	0	4
TAP	8	48	5
TAP	8	72	1
STR	8	96	7
SCL	8	96	7	96	108	4
STR	8	168	5
SCL	8	168	5	96	108	2
STR	8	240	3
SCL	8	240	3	96	108	0
STR	8	312	1
SCL	8	312	1	96	108	6
STR	9	0	7
SCL	9	0	7	96	108	4
STR	9	72	5
SCL	9	72	5	96	108	2
STR	9	144	3
SCL	9	144	3	96	108	0
STR	9	216	1
SCL	9	216	1	96	108	6
BRK	9	288	5
STR	10	0	4
SCR	10	0	4	96	480	3
STR	10	72	4
SUL	10	72	4	96	408	3
TAP	12	0	5
TAP	12	24	4
TAP	12	72	2
TAP	12	96	3
TAP	12	144	1
TAP	12	168	0
TAP	12	216	6
TAP	12	240	7
BRK	12	288	1
BRK	12	288	6
TAP	13	0	2
TAP	13	0	3
TAP	13	48	1
TAP	13	48	4
TAP	13	120	4
TAP	13	120	5
TAP	13	168	3
TAP	13	168	6
TAP	13	216	2
TAP	13	216	5
TAP	13	264	4
TAP	13	288	3
TAP	14	0	4
TAP	14	0	5
TAP	14	48	3
TAP	14	48	6
TAP	14	120	2
TAP	14	120	3
TAP	14	168	1
TAP	14	168	4
TAP	14	216	2
TAP	14	216	5
TAP	14	264	0
TAP	14	288	7
TAP	15	0	0
TAP	15	0	1
TAP	15	48	2
TAP	15	48	7
TAP	15	120	6
TAP	15	120	7
TAP	15	168	0
TAP	15	168	5
TAP	15	216	1
TAP	15	216	6
TAP	15	264	2
STR	15	288	5
SUL	15	288	5	96	96	2
BRK	16	0	0
BRK	16	72	7
BRK	16	144	1
BRK	16	144	6
HLD	17	0	2	72
TAP	17	0	4
TAP	17	72	3
TAP	17	96	2
TAP	17	144	1
TAP	17	144	4
TAP	17	192	3
HLD	17	192	5	72
TAP	17	264	4
TAP	17	288	5
TAP	17	336	3
TAP	17	336	6
HLD	18	0	2	72
TAP	18	0	4
TAP	18	72	3
TAP	18	96	1
TAP	18	144	0
TAP	18	144	4
TAP	18	192	3
HLD	18	192	5	72
TAP	18	264	4
TAP	18	288	6
TAP	18	336	3
TAP	18	336	7
HLD	19	0	2	72
TAP	19	0	4
TAP	19	72	1
TAP	19	96	0
TAP	19	144	2
TAP	19	144	7
TAP	19	192	3
HLD	19	192	5	72
TAP	19	264	6
TAP	19	288	7
TAP	19	336	0
TAP	19	336	5
TAP	20	48	7
TAP	20	72	0
TAP	20	120	1
TAP	20	120	6
TAP	20	192	5
TAP	20	216	4
TAP	20	240	3
TAP	20	264	2
BRK	20	312	7
HLD	21	0	1	72
TAP	21	72	0
TAP	21	96	1
TAP	21	144	2
TAP	21	144	7
HLD	21	192	6	72
TAP	21	264	7
TAP	21	288	6
TAP	21	336	0
TAP	21	336	5
HLD	22	0	1	72
TAP	22	72	0
TAP	22	96	2
TAP	22	144	3
TAP	22	144	7
HLD	22	192	6	72
TAP	22	264	7
TAP	22	288	5
TAP	22	336	0
TAP	22	336	4
HLD	23	0	3	144
STR	23	72	2
SUR	23	72	2	96	168	5
HLD	23	144	6	240
TAP	24	0	4
TAP	24	48	3
TAP	24	48	6
TAP	24	120	3
TAP	24	168	1
TAP	24	168	4
TAP	24	216	2
TAP	24	216	5
TAP	24	264	3
TAP	24	288	4
TAP	24	336	6
TAP	24	336	7
TAP	25	0	2
TAP	25	48	1
TAP	25	48	4
TAP	25	120	5
TAP	25	168	3
TAP	25	168	6
TAP	25	216	2
TAP	25	216	5
TAP	25	264	7
TAP	25	288	0
TAP	25	336	3
TAP	25	336	4
TAP	26	0	1
TAP	26	48	2
TAP	26	48	7
TAP	26	120	6
TAP	26	168	0
TAP	26	168	5
TAP	26	216	1
TAP	26	216	6
TAP	26	264	3
TAP	26	288	4
TAP	26	336	0
TAP	26	336	1
TAP	27	0	7
TAP	27	48	0
TAP	27	48	5
TAP	27	120	0
TAP	27	168	2
TAP	27	168	7
TAP	27	216	3
TAP	27	216	4
TAP	27	264	0
TAP	27	288	7
TAP	27	336	1
TAP	27	336	6
STR	28	0	3
SUR	28	0	3	96	96	4
STR	28	144	5
SUR	28	144	5	96	48	2
TAP	28	240	1
TAP	28	264	0
TAP	28	288	7
TAP	28	336	1
TAP	28	336	6
STR	29	0	4
SUL	29	0	4	96	96	3
STR	29	144	2
SUL	29	144	2	96	48	5
TAP	29	240	6
TAP	29	264	7
TAP	29	288	0
TAP	29	336	1
TAP	29	336	6
TAP	30	0	2
TAP	30	24	3
TAP	30	72	5
TAP	30	96	4
TAP	30	144	0
TAP	30	168	7
TAP	30	240	0
TAP	30	240	1
TAP	30	288	2
TAP	30	288	3
TAP	30	336	4
TAP	30	336	5
TAP	31	0	6
TAP	31	24	7
TAP	31	72	1
TAP	31	96	0
TAP	31	144	3
TAP	31	168	4
TAP	31	240	6
TAP	31	240	7
TAP	31	288	4
TAP	31	288	5
TAP	31	336	2
TAP	31	336	3
STR	32	0	4
SV_	32	0	4	96	48	3
TAP	32	48	4
STR	32	120	2
SUL	32	120	2	96	48	5
TAP	32	168	2
STR	32	240	6
SCR	32	240	6	96	120	5
TAP	32	288	6
TAP	33	96	6
TAP	33	128	7
TAP	33	160	0
BRK	33	192	1
STR	33	192	6
SI_	33	192	6	96	48	2
STR	33	288	0
SI_	33	288	0	96	48	4
BRK	33	288	6
BRK	34	0	0
BRK	34	0	4
TAP	34	96	2
TAP	34	96	6
TAP	34	144	2
TAP	34	144	6
STR	34	168	1
SI_	34	168	1	96	48	5
TAP	34	168	5
TAP	34	192	0
TAP	34	192	4
TAP	34	336	7
TAP	35	0	3
TAP	35	0	7
TAP	35	96	1
TAP	35	96	5
TAP	35	144	1
TAP	35	144	5
TAP	35	168	2
STR	35	168	6
SI_	35	168	6	96	48	2
TAP	35	192	3
TAP	35	192	7
TAP	35	336	0
TAP	36	0	0
TAP	36	0	4
TAP	36	96	2
TAP	36	96	6
TAP	36	144	2
TAP	36	144	6
STR	36	168	1
SI_	36	168	1	96	48	4
STR	36	168	5
SI_	36	168	5	96	48	0
TAP	36	192	0
TAP	36	192	4
TAP	36	336	3
TAP	36	336	7
TAP	37	0	0
TAP	37	0	4
TAP	37	72	1
TAP	37	72	6
HLD	37	120	3	72
HLD	37	144	4	48
TAP	37	240	2
TAP	37	240	5
TAP	37	288	0
TAP	37	288	7
TAP	38	0	5
TAP	38	0	6
TAP	38	72	1
TAP	38	72	2
TAP	38	120	0
TAP	38	144	7
TAP	38	192	1
TAP	38	192	6
HLD	38	240	2	48
HLD	38	288	0	48
HLD	38	336	6	48
HLD	39	0	4	96
TAP	39	96	0
TAP	39	144	1
TAP	39	144	7
TAP	39	168	2
TAP	39	168	6
TAP	39	192	3
TAP	39	192	5
TAP	39	264	0
TAP	39	264	4
TAP	39	336	3
TAP	39	336	7
TAP	40	0	2
TAP	40	0	5
TAP	40	72	0
TAP	40	72	1
TAP	40	120	6
TAP	40	120	7
TAP	40	168	0
TAP	40	192	7
TAP	40	240	1
TAP	40	240	6
TAP	40	288	2
STR	40	288	5
SUR	40	288	5	96	48	2
TAP	40	336	3
TAP	40	336	4
TAP	41	0	1
TAP	41	24	0
TAP	41	48	7
TAP	41	72	6
TAP	41	120	3
TAP	41	120	4
STR	41	192	1
SI_	41	192	1	96	48	5
BRK	41	192	6
BRK	41	288	1
STR	41	288	7
SI_	41	288	7	96	48	3
BRK	42	0	3
BRK	42	0	7
TAP	42	96	1
TAP	42	96	5
TAP	42	144	1
TAP	42	144	5
STR	42	168	2
SI_	42	168	2	96	48	6
TAP	42	168	6
TAP	42	192	3
TAP	42	192	7
TAP	42	336	4
TAP	43	0	0
TAP	43	0	4
TAP	43	96	2
TAP	43	96	6
TAP	43	144	2
TAP	43	144	6
TAP	43	168	1
STR	43	168	5
SI_	43	168	5	96	48	1
TAP	43	192	0
TAP	43	192	4
TAP	43	336	3
TAP	44	0	3
TAP	44	0	7
TAP	44	96	1
TAP	44	96	5
TAP	44	144	1
TAP	44	144	5
STR	44	168	2
SI_	44	168	2	96	48	7
STR	44	168	6
SI_	44	168	6	96	48	3
TAP	44	192	3
TAP	44	192	7
TAP	44	336	0
TAP	44	336	4
TAP	45	0	3
TAP	45	0	7
TAP	45	96	1
TAP	45	96	6
TAP	45	192	3
TAP	45	192	4
TAP	45	240	0
TAP	45	264	7
TAP	45	312	1
TAP	45	312	6
TAP	46	0	3
TAP	46	0	4
TAP	46	48	2
TAP	46	72	1
TAP	46	72	3
TAP	46	120	0
TAP	46	144	1
TAP	46	144	7
TAP	46	240	5
TAP	46	240	6
TAP	46	288	1
TAP	46	288	2
TAP	47	0	3
TAP	47	0	4
TAP	47	48	5
TAP	47	72	4
TAP	47	72	6
TAP	47	120	7
TAP	47	144	0
TAP	47	144	6
TAP	47	240	1
TAP	47	240	2
TAP	47	288	0
TAP	47	288	7
TAP	47	336	5
TAP	47	336	6
STR	48	0	3
SUR	48	0	3	96	96	4
TAP	48	0	4
TAP	48	96	3
STR	48	96	4
SCR	48	96	4	96	96	3
TAP	48	336	3
TAP	48	336	4
TAP	49	0	1
TAP	49	0	6
TAP	49	72	1
TAP	49	96	0
TAP	49	144	2
TAP	49	144	7
TAP	49	192	3
TAP	49	192	4
TAP	49	264	6
TAP	49	288	7
TAP	49	336	0
TAP	49	336	6
STR	50	0	1
SCL	50	0	1	96	48	6
STR	50	0	5
SCL	50	0	5	96	48	2
BRK	50	96	1
BRK	50	96	5
TAP	50	192	2
TAP	50	192	6
TAP	50	216	3
TAP	50	216	7
TAP	50	240	0
TAP	50	240	4
TAP	50	264	1
TAP	50	264	5
TAP	50	312	0
TAP	50	336	7
HLD	50	360	1	96
TAP	51	72	0
TAP	51	144	2
TAP	51	144	7
HLD	51	192	6	72
TAP	51	264	7
TAP	51	336	0
TAP	51	336	5
HLD	52	0	3	72
TAP	52	72	4
TAP	52	144	2
TAP	52	144	5
TAP	52	192	0
TAP	52	192	7
TAP	52	288	0
TAP	52	300	1
TAP	52	312	2
TAP	52	324	3
TAP	52	336	4
TAP	52	348	5
TAP	52	360	6
TAP	52	372	7
BRK	53	0	0
TAP	53	96	2
TAP	53	96	3
STR	53	168	4
SI_	53	168	4	96	48	7
STR	53	168	5
SI_	53	168	5	96	48	2
TAP	53	264	4
TAP	53	264	5
TAP	54	0	1
TAP	54	0	6
TAP	54	24	0
TAP	54	24	7
TAP	54	96	4
TAP	54	96	5
STR	54	168	2
SI_	54	168	2	96	48	5
STR	54	168	3
SI_	54	168	3	96	48	0
TAP	54	264	2
TAP	54	264	3
TAP	55	0	5
TAP	55	0	6
TAP	55	96	1
TAP	55	96	2
STR	55	168	0
SI_	55	168	0	96	48	4
STR	55	168	3
SI_	55	168	3	96	48	7
TAP	55	264	0
TAP	55	264	3
TAP	56	0	2
TAP	56	0	5
TAP	56	24	3
TAP	56	24	4
TAP	56	96	5
TAP	56	96	6
STR	56	168	4
SI_	56	168	4	96	48	0
STR	56	168	7
SI_	56	168	7	96	48	3
TAP	56	264	4
TAP	56	264	7
STR	57	0	0
SI_	57	0	0	96	48	2
STR	57	0	3
SI_	57	0	3	96	48	7
TAP	57	96	0
TAP	57	96	3
STR	57	168	0
SI_	57	168	0	96	48	4
STR	57	168	3
SI_	57	168	3	96	48	1
TAP	57	264	0
TAP	57	264	3
STR	58	0	7
SI_	58	0	7	96	48	3
STR	58	24	4
SI_	58	24	4	96	24	6
TAP	58	96	4
TAP	58	96	7
STR	58	168	4
SI_	58	168	4	96	48	0
STR	58	168	7
SI_	58	168	7	96	48	5
TAP	58	264	4
TAP	58	264	7
STR	59	0	0
SI_	59	0	0	96	48	5
STR	59	0	7
SI_	59	0	7	96	48	2
TAP	59	96	0
TAP	59	96	7
HLD	59	168	3	120
HLD	59	168	4	120
TAP	59	312	2
TAP	59	336	3
TAP	59	360	2
TAP	60	0	5
TAP	60	24	4
TAP	60	48	5
TAP	60	72	1
TAP	60	96	3
TAP	60	120	1
TAP	60	144	6
TAP	60	168	4
TAP	60	192	6
TAP	60	216	0
TAP	60	240	7
BRK	60	312	0
BRK	60	312	7
BRK	60	324	1
BRK	60	324	6
BRK	60	336	2
BRK	60	336	5
BRK	60	348	3
BRK	60	348	4

T_REC_TAP	472
T_REC_BRK	27
T_REC_XTP	0
T_REC_HLD	23
T_REC_XHO	0
T_REC_STR	58
T_REC_BST	0
T_REC_XST	0
T_REC_TTP	0
T_REC_THO	0
T_REC_SLD	58
T_REC_ALL	638
T_NUM_TAP	530
T_NUM_BRK	27
T_NUM_HLD	23
T_NUM_SLD	58
T_NUM_ALL	638
T_JUDGE_TAP	557
T_JUDGE_HLD	48
T_JUDGE_SLD	58
T_JUDGE_ALL	663
TTM_EACHPAIRS	194
TTM_SCR_TAP	265000
TTM_SCR_BRK	70200
TTM_SCR_HLD	23000
TTM_SCR_SLD	87000
TTM_SCR_ALL	445200
TTM_SCR_S	429250
TTM_SCR_SS	442500
TTM_RAT_ACV	10061

