VERSION	0.00.00	1.03.00
FES_MODE	0
BPM_DEF	129.000	129.000	129.000	129.000
MET_DEF	4	4
RESOLUTION	384
CLK_DEF	384
COMPATIBLE_CODE	MA2

BPM	0	0	129.000
MET	0	0	4	4

TAP	2	0	1
TAP	2	0	5
TAP	2	72	3
TAP	2	72	7
STR	2	144	1
SCR	2	144	1	96	48	3
STR	2	144	5
SCR	2	144	5	96	48	7
TAP	3	24	2
TAP	3	24	6
TAP	3	96	0
TAP	3	96	4
STR	3	168	2
SCL	3	168	2	96	48	0
STR	3	168	6
SCL	3	168	6	96	48	4
STR	4	0	1
SUR	4	0	1	96	192	5
STR	4	0	5
SUR	4	0	5	96	192	1
TAP	5	0	3
TAP	5	0	7
TAP	5	48	3
TAP	5	48	7
TAP	5	120	1
TAP	5	120	5
BRK	5	168	3
BRK	5	168	7
TAP	6	0	2
TAP	6	0	6
TAP	6	72	0
TAP	6	72	4
STR	6	144	2
SCL	6	144	2	96	48	0
STR	6	144	6
SCL	6	144	6	96	48	4
TAP	7	24	1
TAP	7	24	5
TAP	7	96	3
TAP	7	96	7
STR	7	168	1
SCR	7	168	1	96	48	3
STR	7	168	5
SCR	7	168	5	96	48	7
TAP	8	0	6
TAP	8	48	0
HLD	8	72	7	240
TAP	9	0	1
TAP	9	0	6
TAP	9	72	1
TAP	9	72	6
TAP	9	144	1
TAP	9	144	6
TAP	9	216	0
TAP	9	216	7
TAP	9	288	0
TAP	9	288	7
TAP	10	0	3
TAP	10	0	4
TAP	10	72	3
STR	10	72	4
SCR	10	72	4	96	696	3
TAP	12	192	5
TAP	12	240	2
TAP	12	288	1
TAP	12	288	6
TAP	13	0	3
TAP	13	0	4
TAP	13	48	3
TAP	13	48	4
TAP	13	120	2
TAP	13	168	5
TAP	13	216	2
TAP	13	264	5
TAP	13	288	5
TAP	14	0	0
TAP	14	0	7
TAP	14	48	0
TAP	14	48	7
TAP	14	120	6
TAP	14	168	1
TAP	14	216	6
TAP	14	264	1
TAP	14	288	1
TAP	15	0	3
TAP	15	0	4
TAP	15	48	3
TAP	15	48	4
TAP	15	120	2
TAP	15	168	5
TAP	15	216	2
TAP	15	264	5
TAP	15	288	5
TAP	16	0	1
TAP	16	72	5
TAP	16	144	3
STR	16	144	7
SI_	16	144	7	96	48	3
HLD	17	0	1	72
TAP	17	72	0
TAP	17	96	1
HLD	17	192	6	72
TAP	17	264	7
TAP	17	288	6
HLD	18	0	2	72
TAP	18	72	3
TAP	18	96	2
HLD	18	192	5	72
TAP	18	264	4
TAP	18	288	5
HLD	19	0	0	72
TAP	19	72	7
TAP	19	96	0
HLD	19	192	4	72
TAP	19	264	3
TAP	19	288	4
TAP	20	48	4
TAP	20	48	5
TAP	20	120	2
TAP	20	120	3
TAP	20	192	4
TAP	20	216	3
TAP	20	240	4
TAP	20	264	3
HLD	21	0	7	72
TAP	21	72	0
TAP	21	120	1
HLD	21	168	2	120
HLD	22	0	0	72
TAP	22	72	7
TAP	22	120	6
HLD	22	168	5	120
TAP	22	288	0
TAP	22	336	1
TAP	23	0	2
TAP	23	0	4
TAP	23	72	1
TAP	23	72	5
STR	23	144	0
SCR	23	144	0	96	48	2
STR	23	144	6
SCL	23	144	6	96	48	4
TAP	24	0	5
TAP	24	48	4
TAP	24	96	4
TAP	24	96	5
TAP	24	192	2
TAP	24	240	3
TAP	24	288	2
TAP	24	288	3
TAP	25	0	6
TAP	25	48	7
TAP	25	96	6
TAP	25	96	7
TAP	25	192	1
TAP	25	240	0
TAP	25	288	0
TAP	25	288	1
TAP	26	0	5
TAP	26	48	4
TAP	26	96	3
TAP	26	96	6
TAP	26	192	2
TAP	26	240	3
TAP	26	288	1
TAP	26	288	4
TAP	27	0	0
TAP	27	0	7
TAP	27	96	1
TAP	27	96	2
TAP	27	192	3
TAP	27	192	4
TAP	27	288	5
TAP	27	288	6
STR	28	0	0
SCR	28	0	0	96	144	3
STR	28	0	7
SUR	28	0	7	96	144	4
STR	29	0	0
SUL	29	0	0	96	144	3
STR	29	0	7
SCL	29	0	7	96	144	4
TAP	29	336	2
HLD	30	0	6	288
HLD	30	0	7	288
TAP	30	336	5
HLD	31	0	0	288
HLD	31	0	1	288
TAP	32	0	3
TAP	32	0	7
TAP	32	48	3
TAP	32	48	7
TAP	32	120	1
TAP	32	120	5
TAP	32	168	1
TAP	32	168	5
TAP	32	240	3
TAP	32	240	7
STR	32	288	3
SUL	32	288	3	96	120	1
TAP	32	288	7
TAP	33	192	7
TAP	33	288	1
TAP	33	288	6
TAP	34	0	4
TAP	34	72	2
TAP	34	96	4
TAP	34	144	4
TAP	34	192	3
TAP	34	264	5
TAP	34	288	3
TAP	34	336	3
TAP	35	0	4
TAP	35	72	1
TAP	35	96	4
TAP	35	144	4
TAP	35	192	3
TAP	35	264	6
TAP	35	288	3
TAP	35	336	3
TAP	36	0	4
TAP	36	72	0
TAP	36	96	4
TAP	36	144	4
TAP	36	192	3
TAP	36	264	7
TAP	36	288	3
TAP	36	336	3
TAP	37	0	4
TAP	37	72	1
TAP	37	96	4
TAP	37	144	4
TAP	37	192	6
TAP	37	192	7
TAP	37	288	0
TAP	37	288	1
TAP	38	0	4
TAP	38	72	3
TAP	38	96	4
TAP	38	144	2
STR	38	192	0
SCL	38	192	0	96	48	5
TAP	38	192	1
TAP	39	0	3
TAP	39	72	4
TAP	39	96	3
TAP	39	144	5
TAP	39	192	6
STR	39	192	7
SCR	39	192	7	96	48	2
TAP	40	0	4
TAP	40	72	3
TAP	40	96	4
TAP	40	144	2
STR	40	192	0
SCL	40	192	0	96	48	5
TAP	40	192	1
TAP	41	0	3
TAP	41	24	4
TAP	41	48	3
TAP	41	72	4
TAP	41	120	3
TAP	41	120	4
BRK	41	192	2
BRK	41	192	5
BRK	41	288	1
BRK	41	288	6
HLD	42	0	0	96
STR	42	0	7
SCL	42	0	7	96	48	4
TAP	42	192	0
TAP	42	264	1
TAP	42	264	6
TAP	42	336	2
TAP	42	336	5
STR	43	0	3
SCL	43	0	3	96	48	0
HLD	43	0	4	96
TAP	43	192	4
TAP	43	264	2
TAP	43	264	5
TAP	43	336	1
TAP	43	336	6
HLD	44	0	0	96
STR	44	0	7
SCL	44	0	7	96	48	4
TAP	44	192	0
TAP	44	264	1
TAP	44	264	6
TAP	44	336	2
TAP	44	336	5
STR	45	0	3
SCL	45	0	3	96	48	0
HLD	45	0	4	96
TAP	45	192	4
TAP	45	264	2
TAP	45	312	6
TAP	46	0	1
TAP	46	0	7
TAP	46	72	3
TAP	46	72	5
STR	46	144	1
SCR	46	144	1	96	48	4
STR	46	144	7
SCL	46	144	7	96	48	4
TAP	47	0	0
TAP	47	0	6
TAP	47	72	2
TAP	47	72	4
STR	47	144	0
SCR	47	144	0	96	48	3
STR	47	144	6
SCL	47	144	6	96	48	3
HLD	48	0	2	96
HLD	48	96	3	96
STR	48	192	4
SI_	48	192	4	96	48	0
TAP	49	0	7
TAP	49	48	0
TAP	49	96	6
TAP	49	144	1
TAP	49	192	5
TAP	49	240	2
TAP	49	288	4
TAP	49	312	3
TAP	49	336	4
TAP	49	360	3
TAP	50	0	4
BRK	50	96	1
BRK	50	96	6
TAP	50	192	4
TAP	50	240	2
TAP	50	288	6
TAP	50	336	0
HLD	50	360	7	600
TAP	51	192	1
TAP	51	264	5
HLD	51	336	3	144
STR	52	192	3
SCL	52	192	3	96	48	0
TAP	53	0	5
TAP	53	96	4
TAP	53	96	6
TAP	53	192	2
TAP	53	288	1
TAP	53	288	3
TAP	54	24	2
TAP	54	24	3
TAP	54	96	2
TAP	54	96	3
TAP	54	168	4
TAP	54	168	5
TAP	54	264	2
TAP	54	264	3
TAP	55	0	6
TAP	55	96	5
TAP	55	96	7
TAP	55	192	1
TAP	55	288	0
TAP	55	288	2
TAP	56	24	6
TAP	56	24	7
TAP	56	96	6
TAP	56	96	7
TAP	56	168	0
TAP	56	168	1
TAP	56	264	6
TAP	56	264	7
TAP	57	0	2
TAP	57	0	3
TAP	57	96	0
TAP	57	96	1
TAP	57	168	6
TAP	57	168	7
HLD	57	264	4	72
HLD	57	264	5	72
TAP	58	24	6
TAP	58	24	7
TAP	58	96	0
TAP	58	96	1
TAP	58	168	2
TAP	58	168	3
HLD	58	264	4	72
HLD	58	264	5	72
TAP	59	0	2
TAP	59	0	3
TAP	59	96	0
TAP	59	96	1
HLD	59	168	6	96
HLD	59	168	7	96
TAP	59	312	0
TAP	59	312	1
TAP	59	360	2
TAP	59	360	3
TAP	60	24	4
TAP	60	24	5
TAP	60	72	6
TAP	60	72	7
TAP	60	120	0
TAP	60	120	1
TAP	60	168	2
TAP	60	168	3
TAP	60	216	4
TAP	60	240	3
BRK	60	312	1
BRK	60	312	6

T_REC_TAP	303
T_REC_BRK	10
T_REC_XTP	0
T_REC_HLD	29
T_REC_XHO	0
T_REC_STR	32
T_REC_BST	0
T_REC_XST	0
T_REC_TTP	0
T_REC_THO	0
T_REC_SLD	32
T_REC_ALL	406
T_NUM_TAP	335
T_NUM_BRK	10
T_NUM_HLD	29
T_NUM_SLD	32
T_NUM_ALL	406
T_JUDGE_TAP	345
T_JUDGE_HLD	91
T_JUDGE_SLD	32
T_JUDGE_ALL	468
TTM_EACHPAIRS	113
TTM_SCR_TAP	167500
TTM_SCR_BRK	26000
TTM_SCR_HLD	29000
TTM_SCR_SLD	48000
TTM_SCR_ALL	270500
TTM_SCR_S	261450
TTM_SCR_SS	269500
TTM_RAT_ACV	10037

