VERSION	0.00.00	1.03.00
FES_MODE	0
BPM_DEF	129.000	129.000	129.000	129.000
MET_DEF	4	4
RESOLUTION	384
CLK_DEF	384
COMPATIBLE_CODE	MA2

BPM	0	0	129.000
MET	0	0	4	4

HLD	2	0	0	144
HLD	2	0	5	144
TAP	2	288	6
TAP	2	288	7
TAP	3	0	5
TAP	3	96	4
TAP	3	192	3
TAP	3	288	2
STR	4	0	1
SCL	4	0	1	96	192	4
BRK	5	0	7
HLD	6	0	2	144
HLD	6	0	7	144
TAP	6	288	0
TAP	6	288	1
TAP	7	0	2
TAP	7	96	3
TAP	7	192	4
TAP	7	288	5
STR	8	0	6
SCR	8	0	6	96	192	3
STR	9	0	1
SCL	9	0	1	96	192	4
STR	10	0	3
SI_	10	0	3	96	192	0
STR	10	0	4
SI_	10	0	4	96	192	7
HLD	11	96	1	480
HLD	11	96	6	480
TAP	13	0	1
TAP	13	96	3
TAP	13	192	5
TAP	13	288	4
TAP	13	288	5
TAP	14	0	6
TAP	14	96	4
TAP	14	192	2
TAP	14	288	2
TAP	14	288	3
TAP	15	0	1
TAP	15	96	3
TAP	15	192	5
TAP	15	288	4
TAP	15	288	5
STR	16	0	6
SCR	16	0	6	96	96	1
TAP	17	0	2
TAP	17	96	2
TAP	17	96	3
TAP	17	192	5
TAP	17	288	4
TAP	17	288	5
TAP	18	0	2
TAP	18	96	2
TAP	18	96	3
TAP	18	192	5
TAP	18	288	4
TAP	18	288	5
TAP	19	0	3
TAP	19	96	2
TAP	19	96	3
TAP	19	192	4
TAP	19	288	4
TAP	19	288	5
TAP	20	0	3
TAP	20	96	2
TAP	20	192	0
TAP	20	240	0
TAP	21	0	3
TAP	21	96	2
TAP	21	96	3
TAP	21	192	4
TAP	21	288	4
TAP	21	288	5
TAP	22	0	3
TAP	22	96	2
TAP	22	96	3
TAP	22	192	4
TAP	22	288	4
TAP	22	288	5
STR	23	0	6
SCL	23	0	6	96	144	3
STR	23	0	7
SCR	23	0	7	96	144	2
HLD	24	0	2	288
TAP	24	96	3
TAP	24	192	3
TAP	24	288	3
HLD	25	0	5	288
TAP	25	96	4
TAP	25	192	4
TAP	25	288	4
HLD	26	0	1	288
TAP	26	96	2
TAP	26	192	2
TAP	26	288	2
HLD	27	0	6	288
TAP	27	96	5
TAP	27	192	5
TAP	27	288	5
HLD	28	0	1	144
HLD	28	0	4	144
TAP	28	288	2
TAP	28	288	3
HLD	29	0	3	144
HLD	29	0	6	144
TAP	29	288	4
TAP	29	288	5
HLD	30	0	1	672
HLD	31	0	6	288
TAP	32	0	0
TAP	32	0	7
TAP	32	96	0
TAP	32	96	7
TAP	32	192	1
TAP	32	192	6
TAP	32	288	0
TAP	32	288	7
STR	33	0	0
SCR	33	0	0	96	144	3
STR	33	0	7
SCL	33	0	7	96	144	4
TAP	34	0	5
TAP	34	96	4
TAP	34	96	5
TAP	34	192	2
TAP	34	288	2
TAP	34	288	3
TAP	35	0	1
TAP	35	96	0
TAP	35	96	1
TAP	35	192	6
TAP	35	288	6
TAP	35	288	7
TAP	36	0	5
TAP	36	96	4
TAP	36	96	5
TAP	36	192	2
TAP	36	288	2
TAP	36	288	3
TAP	37	0	4
TAP	37	0	5
TAP	37	96	4
TAP	37	96	5
TAP	37	192	2
TAP	37	192	3
TAP	37	288	2
TAP	37	288	3
HLD	38	0	1	192
HLD	38	192	0	192
HLD	39	0	7	192
HLD	39	192	6	192
HLD	40	0	5	192
TAP	40	192	4
TAP	41	0	0
TAP	41	0	7
TAP	41	96	1
TAP	41	96	6
TAP	41	192	0
TAP	41	288	0
TAP	42	0	6
TAP	42	96	6
TAP	42	96	7
TAP	42	192	1
TAP	42	288	0
TAP	42	288	1
TAP	43	0	5
TAP	43	96	4
TAP	43	96	5
TAP	43	192	6
TAP	43	288	6
TAP	43	288	7
TAP	44	0	2
TAP	44	96	2
TAP	44	96	3
TAP	44	192	1
TAP	44	288	0
TAP	44	288	1
TAP	45	0	0
TAP	45	0	1
TAP	45	96	6
TAP	45	96	7
TAP	45	192	6
TAP	45	192	7
TAP	46	0	0
TAP	46	72	0
TAP	46	144	1
TAP	46	144	7
TAP	47	0	7
TAP	47	72	7
TAP	47	144	0
TAP	47	144	6
HLD	48	0	2	288
HLD	48	192	5	96
TAP	49	0	3
TAP	49	96	2
TAP	49	192	4
TAP	49	288	5
TAP	50	0	3
TAP	50	0	4
BRK	50	96	1
BRK	50	96	6
STR	51	0	0
SCL	51	0	0	96	144	5
STR	52	0	4
SCL	52	0	4	96	144	1
TAP	53	0	7
TAP	53	96	6
TAP	53	192	0
TAP	53	288	6
TAP	53	288	7
TAP	54	0	0
TAP	54	96	1
TAP	54	192	7
TAP	54	288	0
TAP	54	288	1
TAP	55	0	7
TAP	55	96	6
TAP	55	192	0
TAP	55	288	6
TAP	55	288	7
TAP	56	0	0
TAP	56	96	1
TAP	56	192	7
TAP	56	288	0
TAP	56	288	1
TAP	57	0	7
TAP	57	96	6
TAP	57	192	0
TAP	57	192	5
TAP	58	0	0
TAP	58	96	1
TAP	58	192	2
TAP	58	192	7
TAP	59	0	5
TAP	59	96	4
STR	59	192	2
SUR	59	192	2	96	288	5
TAP	59	192	3
TAP	60	312	1
TAP	60	312	6

T_REC_TAP	189
T_REC_BRK	3
T_REC_XTP	0
T_REC_HLD	23
T_REC_XHO	0
T_REC_STR	13
T_REC_BST	0
T_REC_XST	0
T_REC_TTP	0
T_REC_THO	0
T_REC_SLD	13
T_REC_ALL	241
T_NUM_TAP	202
T_NUM_BRK	3
T_NUM_HLD	23
T_NUM_SLD	13
T_NUM_ALL	241
T_JUDGE_TAP	205
T_JUDGE_HLD	116
T_JUDGE_SLD	13
T_JUDGE_ALL	334
TTM_EACHPAIRS	62
TTM_SCR_TAP	101000
TTM_SCR_BRK	7800
TTM_SCR_HLD	23000
TTM_SCR_SLD	19500
TTM_SCR_ALL	151300
TTM_SCR_S	146500
TTM_SCR_SS	151000
TTM_RAT_ACV	10019

