VERSION	0.00.00	1.03.00
FES_MODE	0
BPM_DEF	129.000	129.000	129.000	129.000
MET_DEF	4	4
RESOLUTION	384
CLK_DEF	384
COMPATIBLE_CODE	MA2

BPM	0	0	129.000
MET	0	0	4	4

HLD	2	0	0	144
HLD	3	0	7	144
HLD	4	0	0	288
HLD	4	0	7	288
TAP	5	0	0
TAP	5	96	7
TAP	5	192	0
HLD	6	0	1	144
HLD	7	0	2	144
TAP	8	0	3
TAP	8	96	3
TAP	8	192	4
TAP	8	288	4
TAP	9	0	5
TAP	9	96	5
TAP	9	192	6
TAP	9	288	6
HLD	10	0	0	960
HLD	10	0	7	960
TAP	13	0	6
TAP	13	96	6
TAP	13	192	5
TAP	14	0	5
TAP	14	96	5
TAP	14	192	4
TAP	15	0	4
TAP	15	96	4
TAP	15	192	3
HLD	16	0	3	144
TAP	17	0	2
TAP	17	96	3
TAP	17	192	2
TAP	18	0	5
TAP	18	96	4
TAP	18	192	5
STR	19	0	6
SI_	19	0	6	96	192	3
STR	20	0	1
SI_	20	0	1	96	192	4
TAP	21	0	5
TAP	21	96	4
TAP	21	192	3
TAP	22	0	2
TAP	22	96	3
TAP	22	192	4
HLD	23	0	6	288
TAP	24	96	4
TAP	24	96	5
TAP	24	288	4
TAP	24	288	5
TAP	25	96	2
TAP	25	96	3
TAP	25	288	2
TAP	25	288	3
TAP	26	96	0
TAP	26	96	1
TAP	26	288	0
TAP	26	288	1
TAP	27	96	6
TAP	27	96	7
TAP	27	288	6
TAP	27	288	7
HLD	28	0	0	144
HLD	29	0	7	144
TAP	30	0	6
TAP	30	96	7
TAP	30	192	6
TAP	31	0	1
TAP	31	96	0
TAP	31	192	1
TAP	32	0	0
TAP	32	96	0
TAP	32	192	7
HLD	32	288	7	192
TAP	33	192	7
TAP	33	288	7
BRK	34	0	0
TAP	34	192	1
TAP	34	288	1
TAP	35	0	2
TAP	35	192	5
TAP	35	288	5
TAP	36	0	4
TAP	36	192	4
TAP	36	288	4
TAP	37	0	3
TAP	37	192	3
TAP	37	192	4
TAP	38	0	4
TAP	38	0	5
TAP	38	192	2
TAP	38	192	3
TAP	39	0	5
TAP	39	0	6
TAP	39	192	1
TAP	39	192	2
TAP	40	0	6
TAP	40	0	7
TAP	40	192	0
TAP	40	192	1
TAP	41	0	7
TAP	41	96	7
TAP	41	192	0
TAP	41	288	0
BRK	42	0	0
BRK	42	0	7
TAP	42	192	7
TAP	42	288	7
TAP	43	0	6
TAP	43	192	6
TAP	43	288	6
TAP	44	0	5
TAP	44	192	2
TAP	44	288	2
TAP	45	0	3
TAP	45	192	3
TAP	45	288	3
HLD	46	0	4	144
HLD	47	0	3	144
TAP	48	0	3
TAP	48	96	3
TAP	48	192	2
TAP	48	288	2
HLD	49	0	1	384
BRK	50	96	0
BRK	50	96	7
STR	51	0	0
SI_	51	0	0	96	192	4
TAP	53	0	7
TAP	53	96	7
TAP	53	288	7
TAP	54	96	1
TAP	54	288	1
TAP	55	96	3
TAP	55	288	3
TAP	56	96	5
TAP	56	288	5
TAP	57	96	2
TAP	57	96	4
TAP	57	288	2
TAP	57	288	4
TAP	58	96	3
TAP	58	96	5
TAP	58	288	3
TAP	58	288	5
TAP	59	96	6
TAP	59	192	7
TAP	59	288	0
STR	60	0	1
SI_	60	0	1	96	216	5

T_REC_TAP	121
T_REC_BRK	5
T_REC_XTP	0
T_REC_HLD	16
T_REC_XHO	0
T_REC_STR	4
T_REC_BST	0
T_REC_XST	0
T_REC_TTP	0
T_REC_THO	0
T_REC_SLD	4
T_REC_ALL	150
T_NUM_TAP	125
T_NUM_BRK	5
T_NUM_HLD	16
T_NUM_SLD	4
T_NUM_ALL	150
T_JUDGE_TAP	130
T_JUDGE_HLD	97
T_JUDGE_SLD	4
T_JUDGE_ALL	231
TTM_EACHPAIRS	23
TTM_SCR_TAP	62500
TTM_SCR_BRK	13000
TTM_SCR_HLD	16000
TTM_SCR_SLD	6000
TTM_SCR_ALL	97500
TTM_SCR_S	94100
TTM_SCR_SS	97000
TTM_RAT_ACV	10051

