VERSION	0.00.00	1.03.00
FES_MODE	0
BPM_DEF	140.000	140.000	140.000	140.000
MET_DEF	4	4
RESOLUTION	384
CLK_DEF	384
COMPATIBLE_CODE	MA2

BPM	0	0	140.000
MET	0	0	4	4

HLD	2	0	4	96
TAP	2	96	5
HLD	2	192	5	96
TAP	2	288	7
HLD	3	0	3	96
TAP	3	96	2
HLD	3	192	2	96
TAP	3	288	0
HLD	4	0	4	96
TAP	4	96	5
HLD	4	192	3	96
TAP	4	288	0
HLD	5	0	3	96
TAP	5	96	2
HLD	5	192	4	96
TAP	5	288	7
HLD	6	0	0	96
TAP	6	48	1
TAP	6	96	2
HLD	6	192	7	96
TAP	6	240	6
TAP	6	288	5
HLD	7	0	1	96
TAP	7	48	3
TAP	7	96	4
TAP	7	192	6
TAP	7	240	4
TAP	7	288	3
TAP	7	288	5
TAP	8	0	1
TAP	8	0	3
TAP	8	48	2
TAP	8	96	1
TAP	8	96	3
TAP	8	192	4
TAP	8	192	6
TAP	8	240	5
TAP	8	288	4
TAP	8	288	6
STR	9	0	3
SI_	9	0	3	96	48	0
STR	9	96	2
SI_	9	96	2	96	48	7
STR	9	192	5
SI_	9	192	5	96	48	0
TAP	9	288	7
TAP	10	0	2
TAP	10	0	7
TAP	10	48	2
TAP	10	48	7
TAP	10	96	2
TAP	10	96	7
TAP	10	120	1
TAP	10	120	6
TAP	10	144	0
TAP	10	144	5
TAP	10	192	0
TAP	10	192	5
TAP	10	240	0
TAP	10	240	5
TAP	10	288	0
TAP	10	288	5
TAP	10	312	1
TAP	10	312	6
TAP	10	336	2
TAP	10	336	7
TAP	11	0	2
TAP	11	0	7
TAP	11	48	2
TAP	11	48	7
TAP	11	96	2
TAP	11	96	7
TAP	11	120	1
TAP	11	120	6
TAP	11	144	0
TAP	11	144	5
TAP	11	192	0
TAP	11	192	5
TAP	11	240	2
TAP	11	240	7
BRK	11	288	1
BRK	11	288	6
TAP	12	0	2
TAP	12	0	7
TAP	12	48	2
TAP	12	48	7
TAP	12	96	2
TAP	12	96	7
TAP	12	120	1
TAP	12	120	6
TAP	12	144	0
TAP	12	144	5
TAP	12	192	0
TAP	12	192	5
TAP	12	240	0
TAP	12	240	5
TAP	12	288	0
TAP	12	288	5
TAP	12	312	1
TAP	12	312	6
TAP	12	336	2
TAP	12	336	7
TAP	13	0	0
TAP	13	12	1
TAP	13	24	2
TAP	13	36	3
TAP	13	48	4
TAP	13	60	5
TAP	13	72	6
TAP	13	84	7
TAP	13	96	0
TAP	13	108	1
TAP	13	120	2
TAP	13	132	3
TAP	13	144	4
TAP	13	156	5
TAP	13	168	6
TAP	13	180	7
TAP	13	192	0
TAP	13	204	1
TAP	13	216	2
TAP	13	228	3
TAP	13	240	4
TAP	13	252	5
TAP	13	264	6
TAP	13	276	7
BRK	13	288	0
TAP	14	0	5
TAP	14	0	7
TAP	14	48	6
TAP	14	96	0
TAP	14	96	2
TAP	14	144	1
TAP	14	192	5
TAP	14	192	7
TAP	14	240	6
TAP	14	288	0
TAP	14	288	2
TAP	14	336	1
TAP	15	0	7
TAP	15	48	5
TAP	15	48	6
TAP	15	96	4
TAP	15	144	2
TAP	15	144	3
TAP	15	192	1
TAP	15	240	0
TAP	15	240	7
BRK	15	288	6
TAP	16	0	0
TAP	16	0	2
TAP	16	48	1
TAP	16	96	5
TAP	16	96	7
TAP	16	144	6
TAP	16	192	0
TAP	16	192	2
TAP	16	240	1
TAP	16	288	5
TAP	16	288	7
TAP	16	336	6
TAP	17	0	0
TAP	17	48	1
TAP	17	48	2
TAP	17	96	3
TAP	17	144	4
TAP	17	144	5
TAP	17	192	6
TAP	17	240	0
TAP	17	240	7
BRK	17	288	1
TAP	18	0	6
TAP	18	0	7
TAP	18	48	5
TAP	18	96	0
TAP	18	96	1
TAP	18	144	2
TAP	18	192	6
TAP	18	192	7
TAP	18	240	5
TAP	18	288	0
TAP	18	288	1
TAP	18	336	2
TAP	19	0	0
TAP	19	0	7
TAP	19	48	0
TAP	19	48	7
TAP	19	96	6
TAP	19	120	5
TAP	19	144	6
TAP	19	192	0
TAP	19	192	7
TAP	19	240	0
TAP	19	240	7
TAP	19	288	1
TAP	19	312	2
TAP	19	336	1
TAP	20	0	3
TAP	20	0	4
TAP	20	48	2
TAP	20	48	5
TAP	20	96	1
TAP	20	96	6
TAP	20	144	0
TAP	20	168	7
TAP	20	192	0
TAP	20	240	0
TAP	20	240	7
TAP	20	288	1
TAP	20	288	6
TAP	21	0	3
TAP	21	0	4
TAP	21	48	3
TAP	21	48	4
TAP	21	96	1
TAP	21	120	2
TAP	21	144	1
TAP	21	192	3
TAP	21	192	4
TAP	21	240	3
TAP	21	240	4
TAP	21	288	6
TAP	21	312	5
TAP	21	336	6
TAP	22	0	0
TAP	22	0	7
TAP	22	48	1
TAP	22	48	6
TAP	22	96	2
TAP	22	96	5
TAP	22	144	4
TAP	22	168	3
TAP	22	192	4
TAP	22	240	3
TAP	22	240	4
BRK	22	288	2
BRK	22	288	5
TAP	23	0	0
TAP	23	96	2
TAP	23	192	4
TAP	23	288	6
TAP	24	0	0
TAP	24	96	2
TAP	24	192	4
BRK	24	240	0
BRK	24	240	6
BRK	24	288	1
BRK	24	288	7
TAP	25	0	7
TAP	25	96	5
TAP	25	192	3
TAP	25	288	1
TAP	26	0	0
TAP	26	0	6
TAP	26	48	1
TAP	26	48	7
TAP	26	96	0
TAP	26	96	6
TAP	26	144	1
TAP	26	144	7
BRK	26	240	0
BRK	26	240	5
BRK	26	288	2
BRK	26	288	7
STR	27	0	7
SI_	27	0	7	96	48	3
STR	27	96	5
SI_	27	96	5	96	48	1
STR	27	192	6
SI_	27	192	6	96	48	2
STR	27	288	4
SI_	27	288	4	96	48	1
TAP	28	192	3
BRK	28	240	7
BRK	28	288	7
STR	29	0	0
SI_	29	0	0	96	48	4
STR	29	96	2
SI_	29	96	2	96	48	6
STR	29	192	1
SI_	29	192	1	96	48	5
STR	29	288	3
SI_	29	288	3	96	48	6
STR	30	96	0
SI_	30	96	0	96	96	4
BRK	30	240	0
BRK	30	288	0
TAP	31	0	3
TAP	31	0	4
TAP	31	48	2
TAP	31	48	7
TAP	31	96	3
TAP	31	96	4
TAP	31	144	0
TAP	31	144	5
TAP	31	192	3
TAP	31	192	4
TAP	31	240	2
TAP	31	240	7
TAP	31	288	3
TAP	31	288	4
TAP	31	336	0
TAP	31	336	5
TAP	32	0	7
TAP	32	48	7
TAP	32	96	6
TAP	32	120	5
TAP	32	144	4
TAP	32	192	0
TAP	32	240	0
TAP	32	288	2
TAP	32	312	3
TAP	32	336	4
TAP	33	0	7
TAP	33	48	7
TAP	33	96	0
TAP	33	144	0
TAP	33	168	1
TAP	33	192	2
BRK	33	240	3
BRK	33	240	6
BRK	33	288	4
BRK	33	288	7
TAP	34	0	3
TAP	34	0	6
TAP	34	48	4
TAP	34	48	5
TAP	34	96	1
TAP	34	96	4
TAP	34	144	2
TAP	34	144	3
TAP	34	192	3
TAP	34	192	6
TAP	34	240	4
TAP	34	240	5
TAP	34	288	1
TAP	34	288	4
TAP	34	336	2
TAP	34	336	3
STR	35	0	4
SI_	35	0	4	96	96	0
BRK	35	240	0
BRK	35	240	5
BRK	35	288	2
BRK	35	288	7
STR	36	0	6
SI_	36	0	6	96	48	1
STR	36	96	0
SI_	36	96	0	96	48	3
STR	36	192	2
SI_	36	192	2	96	48	5
STR	36	288	4
SI_	36	288	4	96	48	7
STR	37	0	6
SI_	37	0	6	96	48	1
STR	37	96	0
SI_	37	96	0	96	48	3
STR	37	192	2
SI_	37	192	2	96	48	5
BRK	37	240	4
BRK	37	288	4
STR	38	0	0
SI_	38	0	0	96	48	5
STR	38	96	6
SI_	38	96	6	96	48	3
STR	38	192	4
SI_	38	192	4	96	48	1
STR	38	288	2
SI_	38	288	2	96	48	7
STR	39	0	0
SI_	39	0	0	96	48	5
STR	39	96	6
SI_	39	96	6	96	48	3
STR	39	192	4
SI_	39	192	4	96	48	1
BRK	39	240	7
BRK	39	288	7
TAP	40	0	0
TAP	40	0	6
TAP	40	48	3
TAP	40	96	1
TAP	40	96	7
TAP	40	144	4
TAP	40	192	0
TAP	40	192	6
TAP	40	240	3
TAP	40	288	1
TAP	40	288	7
TAP	40	336	4
STR	41	0	1
SCR	41	0	1	96	72	4
STR	41	96	5
SCL	41	96	5	96	72	2
STR	41	192	1
SCR	41	192	1	96	48	4
BRK	41	240	7
BRK	41	288	7
TAP	42	0	1
TAP	42	0	7
TAP	42	48	4
TAP	42	96	0
TAP	42	96	6
TAP	42	144	3
TAP	42	192	1
TAP	42	192	7
TAP	42	240	4
TAP	42	288	0
TAP	42	288	6
TAP	42	336	3
STR	43	0	6
SCL	43	0	6	96	72	3
STR	43	96	2
SCR	43	96	2	96	72	5
STR	43	192	6
SCL	43	192	6	96	48	3
BRK	43	240	0
BRK	43	288	0
STR	44	0	2
SI_	44	0	2	96	48	7
STR	44	0	4
SI_	44	0	4	96	48	7
STR	44	192	3
SI_	44	192	3	96	48	0
STR	44	192	5
SI_	44	192	5	96	48	0
STR	45	0	2
SI_	45	0	2	96	48	7
STR	45	0	4
SI_	45	0	4	96	48	7
TAP	45	48	2
TAP	45	48	4
STR	45	192	3
SI_	45	192	3	96	48	0
STR	45	192	5
SI_	45	192	5	96	48	0
TAP	45	240	3
TAP	45	240	5
TAP	46	0	2
TAP	46	0	4
TAP	46	96	0
TAP	46	96	2
TAP	46	144	1
TAP	46	144	7
TAP	46	192	0
TAP	46	192	6
BRK	46	240	5
BRK	46	240	7
BRK	46	288	4
BRK	46	288	6
STR	47	0	2
SI_	47	0	2	96	48	7
STR	47	0	4
SI_	47	0	4	96	48	7
TAP	47	48	2
TAP	47	48	4
STR	47	192	3
SI_	47	192	3	96	48	0
STR	47	192	5
SI_	47	192	5	96	48	0
TAP	47	240	3
TAP	47	240	5
TAP	48	0	5
TAP	48	0	7
TAP	48	48	0
TAP	48	48	6
TAP	48	96	1
TAP	48	96	7
TAP	48	144	0
TAP	48	144	2
TAP	48	192	1
TAP	48	192	3
BRK	48	240	0
BRK	48	288	0
STR	49	0	0
SCR	49	0	0	96	96	3
STR	49	96	3
SCR	49	96	3	96	96	6
STR	49	192	6
SCR	49	192	6	96	96	1
STR	49	288	1
SCR	49	288	1	96	96	4
STR	50	0	4
SCR	50	0	4	96	96	7
STR	50	96	7
SCR	50	96	7	96	96	2
STR	50	192	2
SCR	50	192	2	96	96	5
STR	50	288	5
SCR	50	288	5	96	96	0
STR	51	0	0
SCR	51	0	0	96	96	3
STR	51	96	3
SCR	51	96	3	96	96	6
STR	51	192	6
SCR	51	192	6	96	96	1
STR	51	288	1
SCR	51	288	1	96	96	4
STR	52	0	4
SCR	52	0	4	96	96	7
STR	52	96	7
SCR	52	96	7	96	96	2
BRK	52	192	2
BRK	52	288	5
STR	53	0	7
SCL	53	0	7	96	96	4
STR	53	96	4
SCL	53	96	4	96	96	1
STR	53	192	1
SCL	53	192	1	96	96	6
STR	53	288	6
SCL	53	288	6	96	96	3
STR	54	0	3
SCL	54	0	3	96	96	0
STR	54	96	0
SCL	54	96	0	96	96	5
STR	54	192	5
SCL	54	192	5	96	96	2
STR	54	288	2
SCL	54	288	2	96	96	7
STR	55	0	7
SCL	55	0	7	96	96	4
STR	55	96	4
SCL	55	96	4	96	96	1
STR	55	192	1
SCL	55	192	1	96	96	6
STR	55	288	6
SCL	55	288	6	96	96	3
BRK	56	0	3
BRK	56	96	0
STR	56	192	0
SI_	56	192	0	96	48	3
STR	56	192	7
SI_	56	192	7	96	48	4
TAP	57	0	5
TAP	57	0	6
TAP	57	48	7
TAP	57	96	0
TAP	57	96	1
TAP	57	144	2
TAP	57	192	3
TAP	57	192	4
TAP	57	240	5
TAP	57	288	6
TAP	57	288	7
TAP	57	336	0
STR	58	0	4
SI_	58	0	4	96	48	0
TAP	58	0	6
TAP	58	192	1
STR	58	192	3
SI_	58	192	3	96	48	7
BRK	58	240	0
BRK	58	288	0
TAP	59	0	1
TAP	59	0	2
TAP	59	48	0
TAP	59	96	6
TAP	59	96	7
TAP	59	144	5
TAP	59	192	3
TAP	59	192	4
TAP	59	240	2
TAP	59	288	0
TAP	59	288	1
TAP	59	336	7
TAP	60	0	0
TAP	60	24	4
TAP	60	48	1
TAP	60	72	5
TAP	60	96	2
TAP	60	120	6
TAP	60	144	3
TAP	60	168	7
TAP	60	192	4
BRK	60	240	7
STR	60	288	7
SI_	60	288	7	96	48	3
STR	61	0	1
SI_	61	0	1	96	48	5
STR	61	96	6
SI_	61	96	6	96	48	2
STR	61	192	0
SI_	61	192	0	96	48	4
STR	62	0	0
SCR	62	0	0	96	48	3
STR	62	0	3
SCR	62	0	3	96	48	6
STR	62	192	4
SCL	62	192	4	96	48	1
STR	62	192	7
SCL	62	192	7	96	48	4
TAP	63	0	2
TAP	63	24	3
TAP	63	72	3
TAP	63	96	4
TAP	63	144	4
TAP	63	192	4
BRK	63	240	6
BRK	63	288	6
STR	64	0	4
SI_	64	0	4	96	48	0
STR	64	96	2
SI_	64	96	2	96	48	6
STR	64	192	5
SI_	64	192	5	96	48	0
TAP	65	0	7
TAP	65	24	7
TAP	65	48	3
TAP	65	72	3
TAP	65	96	5
TAP	65	120	5
TAP	65	144	1
TAP	65	168	1
BRK	65	240	0
BRK	65	240	4
BRK	65	288	2
BRK	65	288	6
STR	66	0	1
SCL	66	0	1	96	96	6
STR	66	96	6
SI_	66	96	6	96	96	2
STR	66	192	2
SCR	66	192	2	96	96	5
BRK	66	288	5
STR	67	0	6
SI_	67	0	6	96	96	1
STR	67	96	1
SCL	67	96	1	96	96	6
STR	67	192	6
SCL	67	192	6	96	96	3
BRK	67	288	3
STR	68	0	1
SCR	68	0	1	96	48	4
STR	68	48	4
SCR	68	48	4	96	48	7
HLD	68	96	1	192
BRK	68	288	0
STR	69	0	3
SI_	69	0	3	96	48	0
STR	69	96	2
SI_	69	96	2	96	48	6
STR	69	192	5
SI_	69	192	5	96	48	0
BRK	69	288	7
STR	70	0	4
SI_	70	0	4	96	48	0
TAP	70	0	6
STR	70	96	2
SI_	70	96	2	96	48	7
TAP	70	240	1
BRK	70	288	0
BRK	70	288	2
TAP	71	0	1
STR	71	0	3
SI_	71	0	3	96	48	7
STR	71	96	5
SI_	71	96	5	96	48	0
TAP	71	192	6
BRK	71	240	5
BRK	71	240	7
TAP	71	288	1
BRK	71	336	0
BRK	71	336	2
STR	72	0	4
SI_	72	0	4	96	48	0
STR	72	96	2
SI_	72	96	2	96	48	7
TAP	72	240	1
BRK	72	288	0
BRK	72	288	2
TAP	73	0	0
TAP	73	24	0
TAP	73	48	6
TAP	73	72	7
TAP	73	96	6
TAP	73	120	6
TAP	73	144	1
TAP	73	168	0
BRK	73	192	5
BRK	73	192	7
BRK	73	240	0
BRK	73	240	2
BRK	73	288	1
BRK	73	288	6

T_REC_TAP	394
T_REC_BRK	72
T_REC_XTP	0
T_REC_HLD	12
T_REC_XHO	0
T_REC_STR	103
T_REC_BST	0
T_REC_XST	0
T_REC_TTP	0
T_REC_THO	0
T_REC_SLD	103
T_REC_ALL	684
T_NUM_TAP	497
T_NUM_BRK	72
T_NUM_HLD	12
T_NUM_SLD	103
T_NUM_ALL	684
T_JUDGE_TAP	569
T_JUDGE_HLD	26
T_JUDGE_SLD	103
T_JUDGE_ALL	698
TTM_EACHPAIRS	150
TTM_SCR_TAP	248500
TTM_SCR_BRK	187200
TTM_SCR_HLD	12000
TTM_SCR_SLD	154500
TTM_SCR_ALL	602200
TTM_SCR_S	577150
TTM_SCR_SS	595000
TTM_RAT_ACV	10121

