VERSION	0.00.00	1.03.00
FES_MODE	0
BPM_DEF	140.000	140.000	140.000	140.000
MET_DEF	4	4
RESOLUTION	384
CLK_DEF	384
COMPATIBLE_CODE	MA2

BPM	0	0	140.000
MET	0	0	4	4

TAP	2	0	0
TAP	2	0	1
TAP	2	96	1
TAP	2	96	2
TAP	2	192	0
TAP	2	192	1
TAP	2	288	2
TAP	2	288	3
TAP	3	0	3
TAP	3	0	4
TAP	3	96	4
TAP	3	96	5
TAP	3	192	3
TAP	3	192	4
TAP	3	288	5
TAP	3	288	6
TAP	4	0	0
TAP	4	0	7
TAP	4	96	0
TAP	4	96	1
TAP	4	192	0
TAP	4	192	7
TAP	4	288	6
TAP	4	288	7
TAP	5	0	2
TAP	5	0	3
TAP	5	96	4
TAP	5	96	5
TAP	5	192	0
TAP	5	192	1
TAP	5	288	6
TAP	5	288	7
TAP	6	0	1
TAP	6	48	1
TAP	6	96	1
TAP	6	192	3
TAP	6	240	3
TAP	6	288	3
TAP	7	0	0
TAP	7	48	0
TAP	7	96	0
TAP	7	192	7
TAP	7	240	6
TAP	7	240	7
TAP	7	288	5
TAP	7	288	6
TAP	8	0	0
TAP	8	48	0
TAP	8	96	0
TAP	8	192	1
TAP	8	240	1
TAP	8	288	1
TAP	9	0	0
TAP	9	0	7
TAP	9	96	4
TAP	9	96	5
BRK	9	192	1
BRK	9	192	2
BRK	9	288	0
BRK	9	288	7
TAP	10	0	0
TAP	10	48	1
TAP	10	96	2
TAP	10	144	2
TAP	10	192	0
TAP	10	240	7
TAP	10	288	6
TAP	10	336	5
TAP	11	0	7
TAP	11	48	1
TAP	11	96	3
TAP	11	144	5
TAP	11	192	5
TAP	11	240	3
TAP	11	240	4
TAP	11	288	1
TAP	11	288	2
TAP	12	0	0
TAP	12	48	1
TAP	12	96	2
TAP	12	144	2
TAP	12	192	0
TAP	12	240	7
TAP	12	288	6
TAP	12	336	5
TAP	13	0	4
TAP	13	0	6
TAP	13	48	5
TAP	13	48	7
TAP	13	96	0
TAP	13	96	6
TAP	13	144	2
TAP	13	192	1
BRK	13	240	0
BRK	13	240	7
BRK	13	288	6
BRK	13	288	7
TAP	14	0	1
TAP	14	0	7
TAP	14	96	0
TAP	14	96	4
TAP	14	192	2
TAP	14	192	6
TAP	14	288	1
TAP	14	288	5
STR	15	0	7
SI_	15	0	7	96	48	3
TAP	15	48	7
TAP	15	192	2
TAP	15	192	4
TAP	15	240	3
TAP	15	240	5
TAP	15	288	4
TAP	15	288	6
TAP	16	0	2
TAP	16	0	6
TAP	16	96	1
TAP	16	96	5
TAP	16	192	3
TAP	16	192	6
TAP	16	288	1
TAP	16	288	5
STR	17	0	0
SI_	17	0	0	96	48	4
TAP	17	48	0
TAP	17	192	3
TAP	17	192	5
TAP	17	240	2
TAP	17	240	4
TAP	17	288	3
TAP	17	288	5
STR	18	0	7
SCL	18	0	7	96	48	4
STR	18	96	0
SCR	18	96	0	96	48	3
STR	18	192	0
SCL	18	192	0	96	48	5
TAP	19	0	7
TAP	19	48	1
TAP	19	96	3
TAP	19	120	4
TAP	19	144	3
TAP	19	192	5
TAP	19	240	3
TAP	19	288	0
TAP	19	336	0
STR	20	0	7
SI_	20	0	7	96	48	3
TAP	20	48	7
TAP	20	144	1
TAP	20	192	1
TAP	20	240	4
BRK	20	288	6
TAP	21	0	0
TAP	21	48	6
TAP	21	96	4
TAP	21	120	5
TAP	21	144	4
TAP	21	192	2
TAP	21	240	4
TAP	21	288	7
TAP	21	336	7
STR	22	0	0
SI_	22	0	0	96	48	4
TAP	22	48	0
TAP	22	144	6
TAP	22	192	6
TAP	22	240	3
BRK	22	288	0
BRK	22	288	1
HLD	23	0	2	96
HLD	23	192	3	96
HLD	24	0	4	96
TAP	24	192	5
BRK	24	240	6
BRK	24	240	7
BRK	24	288	0
BRK	24	288	7
HLD	25	0	6	96
HLD	25	192	5	96
TAP	26	0	7
TAP	26	48	0
TAP	26	96	1
TAP	26	144	2
TAP	26	192	3
BRK	26	240	4
BRK	26	240	5
BRK	26	288	6
BRK	26	288	7
TAP	27	0	1
TAP	27	0	7
TAP	27	96	0
TAP	27	96	4
TAP	27	192	2
TAP	27	192	6
TAP	27	288	1
TAP	27	288	5
STR	28	0	7
SI_	28	0	7	96	48	3
TAP	28	48	7
TAP	28	192	2
TAP	28	192	4
TAP	28	240	3
TAP	28	240	5
TAP	28	288	4
TAP	28	288	6
TAP	29	0	2
TAP	29	0	6
TAP	29	96	1
TAP	29	96	5
TAP	29	192	3
TAP	29	192	6
TAP	29	288	1
TAP	29	288	5
STR	30	0	0
SI_	30	0	0	96	48	4
TAP	30	48	0
TAP	30	192	3
TAP	30	192	5
TAP	30	240	2
TAP	30	240	4
TAP	30	288	3
TAP	30	288	5
STR	31	0	7
SCL	31	0	7	96	48	4
STR	31	96	0
SCR	31	96	0	96	48	3
STR	31	192	0
SCL	31	192	0	96	48	5
TAP	32	0	7
TAP	32	48	1
TAP	32	96	3
TAP	32	120	4
TAP	32	144	3
TAP	32	192	5
TAP	32	240	3
TAP	32	288	0
TAP	32	336	0
STR	33	0	7
SI_	33	0	7	96	48	3
TAP	33	48	7
TAP	33	144	1
TAP	33	192	1
TAP	33	240	4
BRK	33	288	6
TAP	34	0	0
TAP	34	48	6
TAP	34	96	4
TAP	34	120	5
TAP	34	144	4
TAP	34	192	2
TAP	34	240	4
TAP	34	288	7
TAP	34	336	7
STR	35	0	0
SI_	35	0	0	96	48	4
TAP	35	48	0
TAP	35	144	6
TAP	35	192	6
BRK	35	240	2
BRK	35	240	3
BRK	35	288	0
BRK	35	288	1
TAP	36	0	1
TAP	36	48	2
TAP	36	96	0
TAP	36	144	1
TAP	36	192	7
TAP	36	240	0
TAP	36	288	6
TAP	36	336	7
TAP	37	0	5
TAP	37	48	6
TAP	37	96	4
TAP	37	144	2
TAP	37	192	3
TAP	37	240	4
TAP	37	240	5
TAP	37	288	5
TAP	37	288	6
TAP	38	0	4
TAP	38	48	2
TAP	38	96	3
TAP	38	144	1
TAP	38	192	3
TAP	38	240	5
TAP	38	288	3
TAP	38	336	1
TAP	39	0	2
TAP	39	48	4
TAP	39	96	6
TAP	39	144	0
TAP	39	192	2
TAP	39	240	1
TAP	39	240	3
TAP	39	288	0
TAP	39	288	2
STR	40	0	6
SI_	40	0	6	96	48	1
STR	40	96	2
SI_	40	96	2	96	48	5
STR	40	192	6
SI_	40	192	6	96	48	1
TAP	41	48	0
TAP	41	96	6
TAP	41	144	4
TAP	41	192	2
TAP	41	240	0
BRK	41	288	0
STR	42	0	1
SI_	42	0	1	96	48	6
STR	42	96	5
SI_	42	96	5	96	48	2
STR	42	192	1
SI_	42	192	1	96	48	6
TAP	43	48	7
TAP	43	96	1
TAP	43	144	3
TAP	43	192	5
TAP	43	240	3
BRK	43	288	1
HLD	44	0	0	192
HLD	44	192	6	192
TAP	45	0	7
TAP	45	48	0
TAP	45	96	1
TAP	45	120	2
TAP	45	144	1
TAP	45	192	7
TAP	45	240	6
TAP	45	288	5
TAP	45	312	4
TAP	45	336	5
STR	46	0	6
SCR	46	0	6	96	96	1
TAP	46	192	2
TAP	46	240	0
BRK	46	288	6
TAP	47	0	5
TAP	47	48	4
TAP	47	96	3
TAP	47	120	2
TAP	47	144	3
TAP	47	192	5
TAP	47	240	6
TAP	47	288	7
TAP	47	312	0
TAP	47	336	7
STR	48	0	6
SCL	48	0	6	96	96	3
TAP	48	192	2
TAP	48	240	4
BRK	48	288	6
HLD	49	0	0	72
TAP	49	72	7
HLD	49	96	7	72
TAP	49	168	6
HLD	49	192	6	72
TAP	49	264	5
HLD	49	288	5	72
TAP	49	360	4
HLD	50	0	4	72
TAP	50	72	3
HLD	50	96	3	72
TAP	50	168	2
HLD	50	192	2	72
TAP	50	264	1
HLD	50	288	1	72
TAP	50	360	3
HLD	51	0	3	72
TAP	51	72	5
HLD	51	96	5	72
TAP	51	168	7
HLD	51	192	7	72
TAP	51	264	5
HLD	51	288	5	72
TAP	51	360	3
HLD	52	0	3	72
TAP	52	72	2
HLD	52	96	2	72
TAP	52	168	3
HLD	52	192	3	96
TAP	53	0	2
TAP	53	0	3
TAP	53	96	0
TAP	53	96	1
HLD	53	192	6	96
HLD	53	192	7	96
TAP	54	0	0
TAP	54	0	7
TAP	54	96	1
TAP	54	96	2
HLD	54	192	2	96
HLD	54	192	3	96
TAP	55	0	0
TAP	55	0	1
TAP	55	96	6
TAP	55	96	7
HLD	55	192	5	96
HLD	55	192	6	96
TAP	56	0	4
TAP	56	0	5
TAP	56	96	6
TAP	56	96	7
BRK	56	192	0
BRK	56	192	1
TAP	57	0	0
TAP	57	0	4
TAP	57	48	0
TAP	57	96	4
TAP	57	144	4
TAP	57	192	2
TAP	57	192	6
TAP	57	240	2
TAP	57	288	6
TAP	57	336	6
STR	58	0	0
SI_	58	0	0	96	48	4
TAP	58	48	0
TAP	58	144	6
TAP	58	192	3
TAP	58	192	5
TAP	58	240	2
TAP	58	240	4
TAP	58	288	1
TAP	58	288	3
TAP	59	0	2
TAP	59	0	6
TAP	59	48	6
TAP	59	96	2
TAP	59	144	2
TAP	59	192	0
TAP	59	192	4
TAP	59	240	4
TAP	59	288	0
TAP	59	336	0
STR	60	0	7
SI_	60	0	7	96	48	3
TAP	60	48	7
TAP	60	144	1
TAP	60	192	2
TAP	60	192	4
TAP	60	240	3
TAP	60	240	5
TAP	60	288	2
TAP	60	288	4
STR	61	0	0
SCR	61	0	0	96	48	3
STR	61	96	7
SCL	61	96	7	96	48	4
STR	61	192	7
SCR	61	192	7	96	48	2
TAP	62	0	7
TAP	62	48	1
TAP	62	96	3
TAP	62	120	2
TAP	62	144	3
TAP	62	192	5
TAP	62	240	3
TAP	62	288	0
TAP	62	312	1
TAP	62	336	0
STR	63	0	7
SI_	63	0	7	96	48	3
TAP	63	48	7
TAP	63	144	1
TAP	63	168	2
TAP	63	192	1
TAP	63	240	4
BRK	63	288	6
TAP	64	0	0
TAP	64	48	6
TAP	64	96	4
TAP	64	120	5
TAP	64	144	4
TAP	64	192	2
TAP	64	240	4
TAP	64	288	7
TAP	64	312	6
TAP	64	336	7
STR	65	0	0
SI_	65	0	0	96	48	4
TAP	65	48	0
TAP	65	144	6
TAP	65	168	5
TAP	65	192	6
BRK	65	240	4
BRK	65	240	5
BRK	65	288	6
BRK	65	288	7
HLD	66	0	5	72
TAP	66	72	4
TAP	66	96	4
TAP	66	144	5
HLD	66	192	6	72
TAP	66	264	7
TAP	66	288	7
TAP	66	336	0
HLD	67	0	1	72
TAP	67	72	2
TAP	67	96	2
TAP	67	144	1
TAP	67	192	0
TAP	67	240	0
TAP	67	240	7
TAP	67	288	6
TAP	67	288	7
HLD	68	0	0	72
TAP	68	72	1
TAP	68	96	1
TAP	68	144	2
HLD	68	192	0	72
TAP	68	264	7
TAP	68	288	7
TAP	68	336	6
HLD	69	0	5	72
TAP	69	72	4
TAP	69	96	4
TAP	69	144	3
TAP	69	192	4
TAP	69	240	4
TAP	69	240	6
BRK	69	288	5
BRK	69	288	7
TAP	70	0	0
TAP	70	0	1
TAP	70	96	6
TAP	70	96	7
BRK	70	240	0
BRK	70	240	7
BRK	70	288	0
BRK	70	288	1
TAP	71	0	0
TAP	71	0	7
TAP	71	96	5
TAP	71	96	6
TAP	71	192	7
BRK	71	240	1
BRK	71	240	7
TAP	71	288	0
BRK	71	336	0
BRK	71	336	2
TAP	72	0	1
TAP	72	0	7
TAP	72	96	0
TAP	72	96	6
BRK	72	240	0
BRK	72	240	7
BRK	72	288	0
BRK	72	288	1
TAP	73	0	2
TAP	73	24	3
TAP	73	48	2
TAP	73	72	3
TAP	73	96	2
TAP	73	144	6
TAP	73	168	5
TAP	73	192	6
BRK	73	240	0
BRK	73	240	7
BRK	73	288	1
BRK	73	288	6

T_REC_TAP	417
T_REC_BRK	53
T_REC_XTP	0
T_REC_HLD	34
T_REC_XHO	0
T_REC_STR	29
T_REC_BST	0
T_REC_XST	0
T_REC_TTP	0
T_REC_THO	0
T_REC_SLD	29
T_REC_ALL	562
T_NUM_TAP	446
T_NUM_BRK	53
T_NUM_HLD	34
T_NUM_SLD	29
T_NUM_ALL	562
T_JUDGE_TAP	499
T_JUDGE_HLD	72
T_JUDGE_SLD	29
T_JUDGE_ALL	600
TTM_EACHPAIRS	110
TTM_SCR_TAP	223000
TTM_SCR_BRK	137800
TTM_SCR_HLD	34000
TTM_SCR_SLD	43500
TTM_SCR_ALL	438300
TTM_SCR_S	420050
TTM_SCR_SS	433000
TTM_RAT_ACV	10122

