VERSION	0.00.00	1.03.00
FES_MODE	0
BPM_DEF	140.000	140.000	140.000	140.000
MET_DEF	4	4
RESOLUTION	384
CLK_DEF	384
COMPATIBLE_CODE	MA2

BPM	0	0	140.000
MET	0	0	4	4

TAP	2	0	0
TAP	2	0	7
TAP	3	0	0
TAP	3	0	7
TAP	4	0	0
TAP	4	0	7
TAP	5	0	0
TAP	5	0	7
TAP	6	0	0
TAP	6	0	1
TAP	6	192	2
TAP	6	192	3
TAP	7	0	4
TAP	7	0	5
TAP	7	192	6
TAP	7	192	7
TAP	8	0	4
TAP	8	0	5
TAP	8	192	2
TAP	8	192	3
TAP	9	0	0
TAP	9	96	0
TAP	9	192	7
BRK	9	288	6
TAP	10	0	0
TAP	10	96	1
TAP	10	192	2
TAP	10	288	3
TAP	11	0	4
TAP	11	96	5
TAP	11	192	6
TAP	11	288	0
TAP	11	288	7
TAP	12	0	6
TAP	12	96	5
TAP	12	192	4
TAP	12	288	3
TAP	13	0	2
TAP	13	96	1
TAP	13	192	0
BRK	13	288	0
TAP	14	0	6
TAP	14	0	7
TAP	14	96	6
TAP	14	96	7
TAP	14	192	0
TAP	14	192	1
TAP	14	288	0
TAP	14	288	1
TAP	15	0	7
TAP	15	96	7
TAP	15	192	6
TAP	15	240	6
TAP	15	288	6
TAP	16	0	2
TAP	16	0	3
TAP	16	96	2
TAP	16	96	3
TAP	16	192	4
TAP	16	192	5
TAP	16	288	4
TAP	16	288	5
TAP	17	0	3
TAP	17	96	3
TAP	17	192	1
TAP	17	240	1
TAP	17	288	1
TAP	18	0	0
TAP	18	0	7
TAP	18	96	6
TAP	18	96	7
TAP	18	192	0
TAP	18	192	7
TAP	18	288	0
TAP	18	288	1
TAP	19	0	7
TAP	19	48	7
TAP	19	96	7
TAP	19	192	5
TAP	19	240	5
TAP	19	288	5
TAP	20	0	6
TAP	20	96	7
TAP	20	192	0
TAP	20	288	1
STR	21	0	2
SI_	21	0	2	96	96	5
STR	21	192	6
SI_	21	192	6	96	96	1
HLD	22	0	0	192
TAP	22	192	7
TAP	22	288	0
TAP	22	288	7
TAP	23	0	1
TAP	23	192	3
TAP	24	0	5
BRK	24	240	7
BRK	24	288	7
TAP	25	0	5
TAP	25	192	3
HLD	26	0	0	144
HLD	26	0	1	144
BRK	26	240	0
BRK	26	240	7
BRK	26	288	0
BRK	26	288	7
TAP	27	0	6
TAP	27	0	7
TAP	27	96	6
TAP	27	96	7
TAP	27	192	4
TAP	27	192	5
TAP	27	288	4
TAP	27	288	5
HLD	28	0	2	288
TAP	28	192	1
TAP	28	240	1
TAP	28	288	1
TAP	29	0	0
TAP	29	0	1
TAP	29	96	0
TAP	29	96	1
TAP	29	192	2
TAP	29	192	3
TAP	29	288	2
TAP	29	288	3
HLD	30	0	5	288
TAP	30	192	4
TAP	30	240	4
TAP	30	288	4
TAP	31	0	1
TAP	31	0	2
TAP	31	96	1
TAP	31	96	2
TAP	31	192	0
TAP	31	192	1
TAP	31	288	0
TAP	31	288	1
TAP	32	0	2
TAP	32	96	2
TAP	32	192	4
TAP	32	288	4
TAP	33	0	6
TAP	33	96	6
TAP	33	192	0
TAP	33	288	0
TAP	34	0	6
TAP	34	0	7
TAP	34	96	6
TAP	34	96	7
TAP	34	192	4
TAP	34	192	5
TAP	34	288	4
TAP	34	288	5
HLD	35	0	2	192
HLD	35	0	3	192
BRK	35	240	0
BRK	35	240	1
BRK	35	288	0
BRK	35	288	1
TAP	36	0	0
TAP	36	96	1
TAP	36	192	2
TAP	36	288	3
TAP	37	0	4
TAP	37	96	5
TAP	37	192	6
TAP	37	288	7
TAP	38	0	6
TAP	38	96	5
TAP	38	192	4
TAP	38	288	3
TAP	39	0	2
TAP	39	96	1
TAP	39	192	0
TAP	39	288	0
TAP	39	288	7
TAP	40	0	6
TAP	40	0	7
TAP	40	96	6
TAP	40	96	7
TAP	40	192	0
TAP	40	192	1
TAP	40	288	0
TAP	40	288	1
HLD	41	0	7	288
TAP	41	192	6
TAP	41	240	6
TAP	41	288	6
TAP	42	0	0
TAP	42	0	1
TAP	42	96	0
TAP	42	96	1
TAP	42	192	6
TAP	42	192	7
TAP	42	288	6
TAP	42	288	7
HLD	43	0	5	288
TAP	43	192	4
TAP	43	240	4
TAP	43	288	4
TAP	44	0	2
TAP	44	0	3
TAP	44	96	2
TAP	44	96	3
TAP	44	192	4
TAP	44	192	5
TAP	44	288	4
TAP	44	288	5
HLD	45	0	3	192
HLD	45	192	1	192
TAP	46	0	2
TAP	46	96	3
TAP	46	192	4
TAP	46	288	5
HLD	47	0	6	192
HLD	47	192	0	192
TAP	48	0	7
TAP	48	96	5
TAP	48	192	3
BRK	48	288	1
TAP	49	0	0
STR	49	96	0
SCR	49	96	0	96	96	3
TAP	50	0	5
STR	50	96	5
SCR	50	96	5	96	96	0
TAP	51	0	1
STR	51	96	1
SCR	51	96	1	96	96	4
TAP	52	0	6
STR	52	96	6
SCR	52	96	6	96	96	1
TAP	53	0	2
STR	53	96	2
SCL	53	96	2	96	96	7
TAP	54	0	6
STR	54	96	6
SCL	54	96	6	96	96	3
TAP	55	0	1
STR	55	96	1
SCL	55	96	1	96	96	6
TAP	56	0	5
STR	56	96	5
SCL	56	96	5	96	96	2
TAP	57	0	0
TAP	57	0	1
TAP	57	96	2
TAP	57	96	3
TAP	57	192	4
TAP	57	192	5
TAP	57	288	6
TAP	57	288	7
STR	58	0	0
SI_	58	0	0	96	48	4
TAP	58	240	7
TAP	58	288	0
TAP	58	288	7
TAP	59	0	6
TAP	59	0	7
TAP	59	96	4
TAP	59	96	5
TAP	59	192	2
TAP	59	192	3
TAP	59	288	0
TAP	59	288	1
STR	60	0	7
SI_	60	0	7	96	48	3
TAP	60	240	0
TAP	60	288	0
TAP	60	288	7
HLD	61	0	1	192
HLD	61	192	5	192
TAP	62	0	3
TAP	62	96	3
TAP	62	192	4
TAP	62	288	4
TAP	63	0	3
TAP	63	96	5
TAP	63	192	1
TAP	63	288	7
HLD	64	0	6	192
HLD	64	192	2	192
TAP	65	0	4
TAP	65	96	2
TAP	65	192	0
BRK	65	240	7
BRK	65	288	7
HLD	66	0	2	96
HLD	66	96	3	96
HLD	66	192	4	96
TAP	66	288	5
HLD	67	0	5	96
HLD	67	96	4	97
HLD	67	192	3	96
TAP	67	288	2
HLD	68	0	1	96
HLD	68	96	2	96
HLD	68	192	3	96
TAP	68	288	4
HLD	69	0	6	96
HLD	69	96	5	96
HLD	69	192	4	96
TAP	69	288	3
TAP	70	0	1
TAP	70	96	1
BRK	70	240	7
BRK	70	288	7
TAP	71	0	0
TAP	71	96	0
BRK	71	192	6
BRK	71	192	7
BRK	71	288	6
BRK	71	288	7
TAP	72	0	1
TAP	72	96	1
BRK	72	240	7
BRK	72	288	7
TAP	73	0	0
TAP	73	0	1
TAP	73	96	4
TAP	73	96	5
TAP	73	192	2
TAP	73	192	3
TAP	73	288	1
TAP	73	288	6

T_REC_TAP	250
T_REC_BRK	23
T_REC_XTP	0
T_REC_HLD	29
T_REC_XHO	0
T_REC_STR	12
T_REC_BST	0
T_REC_XST	0
T_REC_TTP	0
T_REC_THO	0
T_REC_SLD	12
T_REC_ALL	326
T_NUM_TAP	262
T_NUM_BRK	23
T_NUM_HLD	29
T_NUM_SLD	12
T_NUM_ALL	326
T_JUDGE_TAP	285
T_JUDGE_HLD	99
T_JUDGE_SLD	12
T_JUDGE_ALL	396
TTM_EACHPAIRS	75
TTM_SCR_TAP	131000
TTM_SCR_BRK	59800
TTM_SCR_HLD	29000
TTM_SCR_SLD	18000
TTM_SCR_ALL	237800
TTM_SCR_S	228450
TTM_SCR_SS	235500
TTM_RAT_ACV	10097

