VERSION	0.00.00	1.03.00
FES_MODE	0
BPM_DEF	140.000	140.000	140.000	140.000
MET_DEF	4	4
RESOLUTION	384
CLK_DEF	384
COMPATIBLE_CODE	MA2

BPM	0	0	140.000
MET	0	0	4	4

HLD	6	0	2	192
HLD	7	0	2	192
HLD	8	0	2	192
HLD	9	0	2	192
TAP	10	0	3
TAP	10	192	2
TAP	11	0	3
TAP	11	192	2
TAP	11	192	3
TAP	12	0	4
TAP	12	192	5
TAP	13	0	4
TAP	13	192	4
TAP	13	192	5
STR	14	0	3
SI_	14	0	3	96	192	0
STR	15	0	7
SI_	15	0	7	96	192	4
STR	16	0	3
SI_	16	0	3	96	192	0
STR	17	0	7
SI_	17	0	7	96	192	4
HLD	18	0	3	96
HLD	18	192	3	96
TAP	19	0	2
TAP	19	192	2
TAP	20	0	2
TAP	20	192	2
TAP	21	0	5
TAP	21	192	5
TAP	22	0	5
TAP	22	192	5
HLD	23	0	4	384
BRK	24	288	4
HLD	25	0	3	384
BRK	26	288	3
STR	27	0	3
SI_	27	0	3	96	192	0
STR	28	0	7
SI_	28	0	7	96	192	4
STR	29	0	3
SI_	29	0	3	96	192	0
STR	30	0	7
SI_	30	0	7	96	192	4
HLD	31	0	3	96
HLD	31	192	3	96
TAP	32	0	2
TAP	32	192	2
TAP	33	0	2
TAP	33	192	2
TAP	34	0	5
TAP	34	192	5
TAP	35	0	5
TAP	35	192	5
TAP	36	0	2
TAP	37	0	2
TAP	38	0	5
TAP	39	0	5
STR	40	0	3
SI_	40	0	3	96	192	0
STR	41	0	7
SI_	41	0	7	96	192	4
STR	42	0	3
SI_	42	0	3	96	192	0
STR	43	0	7
SI_	43	0	7	96	192	4
HLD	44	0	3	96
HLD	44	192	3	96
TAP	45	0	2
TAP	45	192	2
TAP	46	0	2
TAP	46	192	2
TAP	47	0	5
TAP	47	192	5
TAP	48	0	5
TAP	48	192	5
STR	49	0	5
SI_	49	0	5	96	192	2
STR	51	0	1
SI_	51	0	1	96	192	6
TAP	53	0	7
TAP	53	96	7
TAP	53	192	7
TAP	54	0	0
TAP	54	96	0
TAP	54	192	0
TAP	55	0	1
TAP	55	96	1
TAP	55	192	1
TAP	56	0	2
TAP	56	96	2
TAP	56	192	2
STR	57	0	3
SI_	57	0	3	96	192	0
STR	58	0	7
SI_	58	0	7	96	192	4
STR	59	0	3
SI_	59	0	3	96	192	0
STR	60	0	7
SI_	60	0	7	96	192	4
HLD	61	0	3	96
HLD	61	192	3	96
TAP	62	0	2
TAP	62	192	2
TAP	63	0	2
TAP	63	192	2
TAP	64	0	5
TAP	64	192	5
TAP	65	0	5
TAP	65	192	5
TAP	66	0	5
TAP	66	96	5
HLD	66	192	5	96
TAP	67	0	4
TAP	67	96	4
HLD	67	192	4	96
TAP	68	0	3
TAP	68	96	3
HLD	68	192	3	96
TAP	69	0	2
TAP	69	96	2
HLD	69	192	2	96
TAP	70	0	3
TAP	70	96	3
TAP	70	192	2
TAP	71	0	4
TAP	71	96	4
TAP	71	192	5
TAP	72	0	3
TAP	72	96	4
TAP	72	192	3
TAP	72	192	4
TAP	73	0	4
TAP	73	96	3
TAP	73	192	3
TAP	73	192	4
BRK	73	288	2
BRK	73	288	5

T_REC_TAP	80
T_REC_BRK	4
T_REC_XTP	0
T_REC_HLD	18
T_REC_XHO	0
T_REC_STR	18
T_REC_BST	0
T_REC_XST	0
T_REC_TTP	0
T_REC_THO	0
T_REC_SLD	18
T_REC_ALL	138
T_NUM_TAP	98
T_NUM_BRK	4
T_NUM_HLD	18
T_NUM_SLD	18
T_NUM_ALL	138
T_JUDGE_TAP	102
T_JUDGE_HLD	56
T_JUDGE_SLD	18
T_JUDGE_ALL	176
TTM_EACHPAIRS	5
TTM_SCR_TAP	49000
TTM_SCR_BRK	10400
TTM_SCR_HLD	18000
TTM_SCR_SLD	27000
TTM_SCR_ALL	104400
TTM_SCR_S	100900
TTM_SCR_SS	104000
TTM_RAT_ACV	10038

