VERSION	0.00.00	1.03.00
FES_MODE	0
BPM_DEF	 90.000	 90.000	 90.000	 90.000
MET_DEF	4	4
RESOLUTION	384
CLK_DEF	384
COMPATIBLE_CODE	MA2

BPM	0	0	 90.000
MET	0	0	4	4

TAP	1	48	0
TAP	1	48	7
TAP	1	80	0
TAP	1	96	7
TAP	1	144	0
TAP	1	144	7
TAP	1	240	0
TAP	1	240	7
TAP	1	272	0
TAP	1	288	7
TAP	1	336	0
TAP	1	336	7
TAP	2	0	7
TAP	2	32	7
TAP	2	48	6
TAP	2	80	6
TAP	2	96	7
TAP	2	144	1
TAP	2	192	0
TAP	2	224	0
TAP	2	240	1
TAP	2	272	1
TAP	2	288	0
TAP	2	336	7
TAP	3	0	6
TAP	3	32	6
TAP	3	48	5
TAP	3	80	5
TAP	3	96	6
TAP	3	144	0
TAP	3	192	1
TAP	3	224	1
TAP	3	240	2
TAP	3	272	2
TAP	3	288	1
TAP	3	336	6
TAP	3	368	7
TAP	4	0	0
TAP	4	0	5
TAP	4	48	7
TAP	4	80	7
TAP	4	96	1
BRK	4	144	1
BRK	4	176	0
BRK	4	192	2
BRK	4	192	7
TAP	5	0	4
TAP	5	80	3
TAP	5	96	2
TAP	5	192	3
TAP	5	272	4
TAP	5	288	5
TAP	6	0	4
TAP	6	32	4
TAP	6	48	3
TAP	6	80	3
TAP	6	96	2
TAP	6	144	2
TAP	6	192	3
TAP	6	224	3
TAP	6	240	4
TAP	6	272	4
TAP	6	288	5
TAP	6	336	5
TAP	7	0	4
TAP	7	32	3
TAP	7	48	4
TAP	7	80	3
BRK	7	96	6
BRK	7	144	1
BRK	7	144	4
BRK	7	192	3
BRK	7	192	6
HLD	8	0	6	0
HLD	8	32	0	0
HLD	8	48	5	0
HLD	8	80	4	0
HLD	8	96	1	0
HLD	8	128	7	0
HLD	8	144	2	0
HLD	8	176	3	0
HLD	8	192	5	0
HLD	8	224	4	0
HLD	8	240	3	0
HLD	8	288	2	0
TAP	9	0	4
TAP	9	32	5
TAP	9	80	5
TAP	9	96	6
TAP	9	144	6
TAP	9	176	7
TAP	9	192	3
TAP	9	224	2
TAP	9	272	2
TAP	9	288	1
TAP	9	320	1
TAP	9	336	0
TAP	10	0	6
TAP	10	32	7
TAP	10	80	7
TAP	10	96	1
TAP	10	128	1
TAP	10	144	0
TAP	10	176	0
BRK	10	192	5
BRK	10	240	2
BRK	10	240	7
BRK	10	288	0
BRK	10	288	5
HLD	11	0	0	0
HLD	11	32	1	0
HLD	11	48	7	0
HLD	11	80	0	0
HLD	11	96	7	0
HLD	11	128	6	0
HLD	11	144	1	0
HLD	11	176	7	0
HLD	11	192	0	0
HLD	11	224	1	0
HLD	11	240	7	0
HLD	11	272	0	0
HLD	11	288	6	0
TAP	12	0	1
TAP	12	48	4
TAP	12	80	4
TAP	12	96	6
TAP	12	144	3
TAP	12	192	5
TAP	12	240	0
TAP	12	272	0
TAP	12	288	2
TAP	12	336	7
TAP	13	32	0
TAP	13	48	1
TAP	13	80	2
TAP	13	96	3
TAP	13	128	4
TAP	13	144	5
TAP	13	176	6
BRK	13	192	7
BRK	13	240	1
BRK	13	240	5
BRK	13	288	3
BRK	13	288	7
HLD	14	0	0	0
HLD	14	48	1	0
HLD	14	80	2	0
HLD	14	96	7	0
HLD	14	144	6	0
HLD	14	176	5	0
HLD	14	192	2	0
HLD	14	240	3	0
HLD	14	272	4	0
HLD	14	288	5	0
TAP	14	368	2
TAP	15	0	3
TAP	15	48	2
TAP	15	80	0
TAP	15	96	4
TAP	15	144	5
TAP	15	176	7
TAP	15	192	3
BRK	15	240	6
BRK	15	272	1
TAP	15	336	5
TAP	15	368	4
TAP	16	0	5
TAP	16	48	7
TAP	16	96	4
TAP	16	144	2
TAP	16	176	3
TAP	16	192	2
TAP	16	240	0
TAP	16	272	3
TAP	16	288	4
TAP	16	320	4
TAP	16	336	3
TAP	16	368	3
TAP	17	0	4
HLD	17	176	7	0
HLD	17	192	6	0
HLD	17	272	0	0
HLD	17	288	1	0
HLD	17	368	4	0
HLD	18	0	5	0
HLD	18	32	3	0
HLD	18	48	4	0
HLD	18	80	2	0
HLD	18	96	3	0
HLD	18	192	1	0
HLD	18	224	1	0
HLD	18	240	0	0
HLD	18	272	0	0
HLD	18	288	7	0
HLD	18	320	7	0
HLD	18	336	6	0
HLD	18	368	6	0
HLD	19	0	7	0
HLD	19	32	0	0
HLD	19	48	7	0
HLD	19	80	1	0
HLD	19	96	6	0
TAP	19	192	0
TAP	19	224	0
TAP	19	240	1
TAP	19	272	1
TAP	19	288	0
TAP	19	336	6
TAP	20	0	7
TAP	20	32	7
TAP	20	48	6
TAP	20	80	6
TAP	20	96	7
TAP	20	144	0
TAP	20	192	1
TAP	20	224	1
TAP	20	240	2
TAP	20	272	2
TAP	20	288	1
TAP	20	336	7
TAP	21	0	6
TAP	21	32	6
TAP	21	48	5
TAP	21	80	5
TAP	21	96	6
TAP	21	144	1
TAP	21	176	0
TAP	21	192	2
TAP	21	192	7
TAP	21	240	0
TAP	21	272	0
TAP	21	288	7
BRK	21	336	6
BRK	21	368	7
BRK	22	0	0
BRK	22	0	5
TAP	22	80	2
STR	22	96	2
SUL	22	96	2	96	192	5
STR	22	288	1
SCL	22	288	1	96	192	6
STR	23	96	5
SUR	23	96	5	96	192	2
STR	23	288	6
SCR	23	288	6	96	192	1
STR	24	96	2
SCL	24	96	2	96	192	5
BRK	24	288	1
BRK	24	336	0
BRK	25	0	7
TAP	25	96	3
TAP	25	192	6
TAP	25	224	6
TAP	25	240	7
TAP	25	272	7
TAP	25	288	0
TAP	25	336	0
TAP	25	368	7
TAP	26	0	0
TAP	26	0	6
TAP	26	32	0
TAP	26	48	1
TAP	26	48	7
TAP	26	80	7
TAP	26	96	0
TAP	26	96	6
TAP	26	192	2
TAP	26	224	2
TAP	26	240	3
TAP	26	272	3
TAP	26	288	4
TAP	26	336	4
TAP	26	368	3
TAP	27	0	2
TAP	27	0	4
TAP	27	32	4
TAP	27	48	3
TAP	27	48	5
TAP	27	80	3
TAP	27	96	2
TAP	27	96	4
TAP	27	192	6
TAP	27	224	6
TAP	27	240	7
TAP	27	272	7
TAP	27	288	0
TAP	27	320	6
TAP	27	336	5
TAP	27	368	3
TAP	28	48	1
TAP	28	80	0
TAP	28	96	7
TAP	28	128	1
TAP	28	144	2
TAP	28	176	4
TAP	28	192	2
TAP	28	224	3
TAP	28	240	2
TAP	28	272	3
TAP	28	288	7
TAP	28	336	6
TAP	28	368	3
TAP	29	0	5
TAP	29	32	4
TAP	29	48	5
TAP	29	80	4
TAP	29	96	0
TAP	29	144	0
TAP	29	144	1
TAP	29	176	0
TAP	29	176	7
TAP	29	192	6
TAP	29	192	7
TAP	29	240	0
TAP	29	288	1
TAP	29	288	2
TAP	29	336	0
TAP	30	0	5
TAP	30	0	6
TAP	30	48	4
TAP	30	96	2
TAP	30	96	3
TAP	30	144	4
TAP	30	192	5
TAP	30	224	4
TAP	30	240	5
TAP	30	272	4
TAP	30	288	2
TAP	30	336	3
TAP	30	368	3
TAP	31	0	2
TAP	31	32	3
TAP	31	48	2
TAP	31	80	3
TAP	31	96	5
TAP	31	144	6
TAP	31	144	7
TAP	31	176	0
TAP	31	176	7
TAP	31	192	0
TAP	31	192	1
TAP	31	240	7
TAP	31	288	5
TAP	31	288	6
TAP	31	336	7
TAP	32	0	1
TAP	32	0	2
TAP	32	48	3
TAP	32	96	4
TAP	32	96	5
TAP	32	144	3
TAP	32	192	2
TAP	32	224	2
TAP	32	240	5
TAP	32	272	5
TAP	32	288	3
TAP	32	336	4
TAP	32	368	2
TAP	32	368	5
TAP	33	0	3
TAP	33	0	4
TAP	33	32	3
TAP	33	32	4
TAP	33	48	2
TAP	33	48	5
TAP	33	80	2
TAP	33	80	5
STR	33	96	3
SCL	33	96	3	96	96	4
STR	33	96	4
SUL	33	96	4	96	96	3
TAP	34	0	3
TAP	34	80	1
TAP	34	96	4
TAP	34	192	4
TAP	34	272	6
TAP	34	288	3
TAP	35	0	2
TAP	35	0	3
TAP	35	48	1
TAP	35	48	4
TAP	35	96	4
TAP	35	96	5
TAP	35	144	3
TAP	35	144	6
TAP	35	192	0
TAP	35	192	1
TAP	35	240	2
TAP	35	240	7
TAP	35	288	6
TAP	35	288	7
TAP	35	336	0
TAP	35	336	5
TAP	36	0	2
STR	36	0	6
SI_	36	0	6	96	48	1
STR	36	96	2
SI_	36	96	2	96	48	5
TAP	36	96	6
STR	36	192	6
SSL	36	192	6	96	96	2
STR	36	288	2
SCL	36	288	2	96	96	5
TAP	37	192	4
TAP	37	192	5
TAP	37	224	4
TAP	37	224	5
TAP	37	240	3
TAP	37	240	6
TAP	37	272	3
TAP	37	272	6
TAP	37	288	4
TAP	37	288	5
TAP	37	336	2
TAP	37	336	5
TAP	38	0	2
TAP	38	0	3
TAP	38	32	2
TAP	38	32	3
TAP	38	48	1
TAP	38	48	4
TAP	38	80	1
TAP	38	80	4
TAP	38	96	2
TAP	38	96	3
TAP	38	192	1
TAP	38	192	4
TAP	38	224	1
TAP	38	224	4
TAP	38	240	2
TAP	38	240	3
TAP	38	272	2
TAP	38	272	3
TAP	38	288	1
TAP	38	288	4
TAP	38	336	3
TAP	38	336	4
TAP	39	0	3
TAP	39	0	6
TAP	39	32	3
TAP	39	32	6
TAP	39	48	4
TAP	39	48	5
TAP	39	80	4
TAP	39	80	5
TAP	39	96	3
TAP	39	96	6
TAP	39	192	4
TAP	39	192	5
TAP	39	224	4
TAP	39	224	5
TAP	39	240	3
TAP	39	240	6
TAP	39	272	3
TAP	39	272	6
TAP	39	288	4
TAP	39	288	5
TAP	39	320	4
TAP	39	320	5
TAP	39	336	3
TAP	39	336	6
TAP	40	0	2
TAP	40	0	3
TAP	40	32	2
TAP	40	32	3
TAP	40	48	1
TAP	40	48	4
TAP	40	80	1
TAP	40	80	4
STR	40	96	2
SUR	40	96	2	96	96	4
STR	40	96	3
SCR	40	96	3	96	96	3
TAP	41	0	1
TAP	41	0	4
TAP	41	32	1
TAP	41	32	4
TAP	41	48	2
TAP	41	48	3
TAP	41	80	2
TAP	41	80	3
TAP	41	96	1
TAP	41	96	5
TAP	41	128	1
TAP	41	128	5
TAP	41	144	3
TAP	41	144	4
TAP	41	176	3
TAP	41	176	4
TAP	41	192	2
TAP	41	192	6
TAP	41	224	2
TAP	41	224	6
TAP	41	240	4
TAP	41	240	5
TAP	41	272	4
TAP	41	272	5
TAP	41	288	3
TAP	41	288	6
TAP	42	0	3
TAP	42	0	6
TAP	42	32	3
TAP	42	32	6
TAP	42	48	4
TAP	42	48	5
TAP	42	80	4
TAP	42	80	5
TAP	42	96	2
TAP	42	96	6
TAP	42	128	2
TAP	42	128	6
TAP	42	144	3
TAP	42	144	4
TAP	42	176	3
TAP	42	176	4
TAP	42	192	1
TAP	42	192	5
TAP	42	224	1
TAP	42	224	5
TAP	42	240	2
TAP	42	240	3
TAP	42	272	2
TAP	42	272	3
TAP	42	288	1
TAP	42	288	4
TAP	42	320	1
TAP	42	336	0
TAP	42	368	0
BRK	43	0	7

T_REC_TAP	416
T_REC_BRK	29
T_REC_XTP	0
T_REC_HLD	58
T_REC_XHO	0
T_REC_STR	13
T_REC_BST	0
T_REC_XST	0
T_REC_TTP	0
T_REC_THO	0
T_REC_SLD	13
T_REC_ALL	529
T_NUM_TAP	429
T_NUM_BRK	29
T_NUM_HLD	58
T_NUM_SLD	13
T_NUM_ALL	529
T_JUDGE_TAP	458
T_JUDGE_HLD	58
T_JUDGE_SLD	13
T_JUDGE_ALL	529
TTM_EACHPAIRS	108
TTM_SCR_TAP	214500
TTM_SCR_BRK	75400
TTM_SCR_HLD	58000
TTM_SCR_SLD	19500
TTM_SCR_ALL	367400
TTM_SCR_S	353600
TTM_SCR_SS	364500
TTM_RAT_ACV	10079

