VERSION	0.00.00	1.03.00
FES_MODE	0
BPM_DEF	 90.000	 90.000	 90.000	 90.000
MET_DEF	4	4
RESOLUTION	384
CLK_DEF	384
COMPATIBLE_CODE	MA2

BPM	0	0	 90.000
MET	0	0	4	4

TAP	1	48	2
TAP	1	96	3
TAP	1	144	2
TAP	1	144	3
TAP	1	240	5
TAP	1	288	4
TAP	1	336	4
TAP	1	336	5
TAP	2	0	3
TAP	2	0	4
TAP	2	96	1
TAP	2	96	2
TAP	2	192	5
TAP	2	192	6
TAP	2	240	5
TAP	2	240	7
TAP	2	288	0
TAP	2	288	5
TAP	3	0	3
TAP	3	0	4
TAP	3	96	5
TAP	3	96	6
TAP	3	192	1
TAP	3	192	2
TAP	3	240	0
TAP	3	240	2
TAP	3	288	2
TAP	3	288	7
TAP	4	0	3
TAP	4	0	4
TAP	4	48	2
TAP	4	48	5
TAP	4	96	1
TAP	4	96	6
BRK	4	192	0
BRK	4	192	7
TAP	4	288	0
TAP	4	288	1
TAP	4	336	6
TAP	4	336	7
TAP	5	0	5
TAP	5	80	5
TAP	5	96	4
TAP	5	144	4
TAP	5	144	5
TAP	5	192	2
TAP	5	272	2
TAP	5	288	3
TAP	5	336	2
TAP	5	336	3
TAP	6	0	1
TAP	6	80	1
TAP	6	96	0
TAP	6	144	0
TAP	6	144	1
TAP	6	192	6
TAP	6	272	6
TAP	6	288	7
TAP	6	336	6
TAP	6	336	7
TAP	7	0	0
TAP	7	80	0
TAP	7	96	7
TAP	7	144	0
TAP	7	144	7
BRK	7	192	3
BRK	7	192	4
TAP	8	0	2
TAP	8	32	2
TAP	8	48	3
TAP	8	96	5
TAP	8	128	5
TAP	8	144	4
TAP	8	192	3
TAP	8	224	3
TAP	8	240	4
TAP	8	288	2
TAP	8	288	5
HLD	9	0	2	96
HLD	9	96	3	96
TAP	9	192	4
TAP	9	240	5
TAP	9	288	3
TAP	9	288	6
HLD	10	0	5	96
HLD	10	96	4	96
TAP	10	192	3
TAP	10	240	2
TAP	10	288	1
TAP	10	288	4
TAP	11	0	1
TAP	11	32	1
TAP	11	48	0
TAP	11	96	6
TAP	11	128	6
TAP	11	144	7
TAP	11	192	0
TAP	11	224	0
TAP	11	240	7
TAP	11	288	1
TAP	11	288	6
HLD	12	0	5	48
HLD	12	48	7	48
TAP	12	96	6
HLD	12	192	2	48
HLD	12	240	0	48
TAP	12	288	1
HLD	13	0	5	48
HLD	13	48	2	48
TAP	13	96	4
TAP	13	144	3
TAP	13	192	3
TAP	13	192	4
TAP	13	240	3
TAP	13	240	4
TAP	13	288	1
TAP	13	288	6
TAP	14	0	1
TAP	14	0	6
TAP	14	48	7
TAP	14	80	7
TAP	14	96	0
TAP	14	144	0
TAP	14	144	7
TAP	14	192	1
TAP	14	192	2
TAP	14	240	3
TAP	14	240	4
TAP	14	288	5
TAP	14	288	6
HLD	15	0	3	48
HLD	15	48	4	48
HLD	15	96	2	48
HLD	15	144	5	48
TAP	15	192	1
TAP	15	240	0
TAP	15	240	7
TAP	15	264	0
TAP	15	264	7
HLD	16	0	2	48
HLD	16	48	1	48
HLD	16	96	0	48
TAP	16	144	5
HLD	16	192	5	48
HLD	16	240	6	48
HLD	16	288	7	48
TAP	16	336	2
HLD	17	0	2	48
HLD	17	48	3	48
TAP	17	96	4
TAP	17	192	4
TAP	17	192	5
TAP	17	288	2
TAP	17	288	3
TAP	18	0	6
TAP	18	0	7
TAP	18	48	0
TAP	18	48	7
TAP	18	96	0
TAP	18	96	1
TAP	18	192	1
TAP	18	192	2
TAP	18	240	0
TAP	18	240	7
TAP	18	288	5
TAP	18	288	6
TAP	18	336	3
TAP	18	336	4
TAP	19	0	2
TAP	19	0	5
TAP	19	48	3
TAP	19	80	3
TAP	19	96	4
TAP	19	144	2
BRK	19	192	5
TAP	19	272	7
TAP	19	288	0
TAP	19	336	6
TAP	20	0	1
TAP	20	48	4
TAP	20	48	5
TAP	20	96	2
TAP	20	96	3
TAP	20	192	6
TAP	20	240	5
TAP	20	288	4
TAP	20	336	3
TAP	21	0	2
TAP	21	48	1
HLD	21	96	0	96
TAP	21	192	7
TAP	21	272	0
TAP	21	288	7
TAP	21	336	1
TAP	21	336	6
BRK	22	0	2
BRK	22	0	5
HLD	22	192	3	192
TAP	22	288	6
TAP	22	336	5
STR	23	0	4
SV_	23	0	4	96	48	3
STR	23	192	2
SUL	23	192	2	96	48	5
STR	24	0	6
SCR	24	0	6	96	48	1
STR	24	192	3
SCL	24	192	3	96	96	4
TAP	25	192	7
TAP	25	240	6
TAP	25	288	5
TAP	25	336	2
TAP	25	336	3
TAP	26	0	4
TAP	26	48	5
TAP	26	96	1
TAP	26	96	7
TAP	26	192	0
TAP	26	240	1
TAP	26	288	2
TAP	26	336	4
TAP	26	336	5
TAP	27	0	3
TAP	27	48	2
TAP	27	96	0
TAP	27	96	6
TAP	27	192	5
TAP	27	240	4
TAP	27	240	6
TAP	27	288	2
TAP	27	336	1
TAP	27	336	3
HLD	28	0	4	96
HLD	28	96	3	96
TAP	28	192	2
TAP	28	240	1
TAP	28	288	0
TAP	28	336	7
TAP	29	0	6
TAP	29	48	5
TAP	29	96	3
TAP	29	96	4
HLD	29	192	1	48
HLD	29	240	2	48
HLD	29	288	3	48
HLD	29	336	4	48
HLD	30	0	5	48
HLD	30	48	6	48
TAP	30	96	7
HLD	30	192	6	48
HLD	30	240	5	48
HLD	30	288	4	48
HLD	30	336	3	48
HLD	31	0	2	48
HLD	31	48	1	48
TAP	31	96	0
HLD	31	192	2	48
TAP	31	240	3
HLD	31	288	5	48
TAP	31	336	4
HLD	32	0	1	48
TAP	32	48	2
HLD	32	96	6	48
TAP	32	144	5
HLD	32	192	0	48
TAP	32	240	1
HLD	32	288	7	48
TAP	32	336	6
HLD	33	0	0	48
TAP	33	48	7
STR	33	96	0
SCR	33	96	0	96	96	3
STR	33	96	7
SCL	33	96	7	96	96	4
TAP	34	0	2
TAP	34	0	3
TAP	34	80	2
TAP	34	96	3
TAP	34	144	1
TAP	34	144	4
TAP	34	192	4
TAP	34	192	5
TAP	34	272	5
TAP	34	288	4
TAP	34	336	3
TAP	34	336	6
TAP	35	0	6
TAP	35	0	7
TAP	35	80	6
TAP	35	96	7
TAP	35	144	0
TAP	35	144	5
TAP	35	192	0
TAP	35	192	1
TAP	35	272	1
TAP	35	288	0
TAP	35	336	2
TAP	35	336	7
TAP	36	0	3
TAP	36	0	4
TAP	36	80	3
TAP	36	96	4
TAP	36	144	2
TAP	36	144	5
STR	36	192	1
SI_	36	192	1	96	48	4
STR	36	288	6
SI_	36	288	6	96	48	3
TAP	37	0	0
BRK	37	96	2
BRK	37	96	5
HLD	37	192	6	80
TAP	37	192	7
TAP	37	272	0
TAP	37	288	6
TAP	37	336	5
TAP	37	336	7
TAP	38	0	0
HLD	38	0	1	80
TAP	38	80	7
TAP	38	96	1
TAP	38	144	0
TAP	38	144	2
HLD	38	192	2	80
TAP	38	192	3
TAP	38	272	4
TAP	38	288	2
TAP	38	336	1
TAP	38	336	3
TAP	39	0	4
HLD	39	0	5	80
TAP	39	80	3
TAP	39	96	5
TAP	39	144	4
TAP	39	144	6
HLD	39	192	3	80
TAP	39	192	4
TAP	39	272	4
TAP	39	288	3
TAP	39	336	1
TAP	39	336	6
STR	40	0	2
SI_	40	0	2	96	48	7
STR	40	96	5
SI_	40	96	5	96	48	0
TAP	40	192	3
BRK	40	288	1
BRK	40	288	6
TAP	41	0	2
TAP	41	32	5
TAP	41	48	4
TAP	41	80	4
TAP	41	96	3
TAP	41	192	5
TAP	41	224	2
TAP	41	240	3
TAP	41	272	3
TAP	41	288	4
TAP	42	0	0
TAP	42	0	1
TAP	42	32	2
TAP	42	48	3
TAP	42	80	3
TAP	42	96	4
TAP	42	192	6
TAP	42	192	7
TAP	42	224	5
TAP	42	240	4
TAP	42	272	4
TAP	42	288	3
TAP	42	336	3
TAP	42	336	4
BRK	43	0	0
BRK	43	0	7

T_REC_TAP	291
T_REC_BRK	13
T_REC_XTP	0
T_REC_HLD	50
T_REC_XHO	0
T_REC_STR	10
T_REC_BST	0
T_REC_XST	0
T_REC_TTP	0
T_REC_THO	0
T_REC_SLD	10
T_REC_ALL	374
T_NUM_TAP	301
T_NUM_BRK	13
T_NUM_HLD	50
T_NUM_SLD	10
T_NUM_ALL	374
T_JUDGE_TAP	314
T_JUDGE_HLD	130
T_JUDGE_SLD	10
T_JUDGE_ALL	454
TTM_EACHPAIRS	86
TTM_SCR_TAP	150500
TTM_SCR_BRK	33800
TTM_SCR_HLD	50000
TTM_SCR_SLD	15000
TTM_SCR_ALL	249300
TTM_SCR_S	240600
TTM_SCR_SS	248000
TTM_RAT_ACV	10052

