VERSION	0.00.00	1.03.00
FES_MODE	0
BPM_DEF	 90.000	 90.000	 90.000	 90.000
MET_DEF	4	4
RESOLUTION	384
CLK_DEF	384
COMPATIBLE_CODE	MA2

BPM	0	0	 90.000
MET	0	0	4	4

TAP	2	0	2
TAP	2	96	1
STR	2	192	0
SI_	2	192	0	96	48	4
TAP	3	0	5
TAP	3	96	6
STR	3	192	7
SI_	3	192	7	96	48	3
TAP	4	0	3
TAP	4	0	4
STR	4	96	0
SI_	4	96	0	96	48	3
STR	4	96	7
SI_	4	96	7	96	48	4
TAP	5	0	2
TAP	5	48	3
TAP	5	96	2
TAP	5	192	5
TAP	5	240	4
TAP	5	288	5
TAP	6	0	6
TAP	6	48	7
TAP	6	96	6
TAP	6	192	1
TAP	6	240	0
TAP	6	288	1
TAP	7	0	2
TAP	7	48	3
TAP	7	96	4
TAP	7	144	5
BRK	7	192	1
BRK	7	192	6
HLD	8	0	2	96
HLD	8	96	4	96
TAP	8	192	3
TAP	8	240	3
TAP	8	288	2
TAP	8	288	4
TAP	9	0	1
TAP	9	48	0
TAP	9	96	1
TAP	9	192	6
TAP	9	240	7
TAP	9	288	6
TAP	10	0	0
TAP	10	48	7
TAP	10	96	1
TAP	10	144	6
TAP	10	192	0
TAP	10	192	7
TAP	10	240	0
TAP	10	240	7
TAP	10	288	1
TAP	10	288	6
HLD	11	0	5	96
HLD	11	96	3	96
TAP	11	192	4
TAP	11	240	4
TAP	11	288	3
TAP	11	288	5
TAP	12	0	2
TAP	12	48	3
TAP	12	96	2
TAP	12	192	5
TAP	12	240	4
TAP	12	288	5
TAP	13	0	3
TAP	13	48	4
TAP	13	96	2
TAP	13	144	5
TAP	13	192	3
TAP	13	192	4
TAP	13	240	3
TAP	13	240	4
TAP	13	288	2
TAP	13	288	5
HLD	14	0	0	96
HLD	14	96	7	96
TAP	14	192	0
TAP	14	240	7
TAP	14	288	1
TAP	14	288	6
TAP	15	0	2
TAP	15	48	2
TAP	15	96	5
TAP	15	144	5
TAP	15	192	1
TAP	15	192	6
BRK	15	240	1
BRK	15	240	6
TAP	16	0	7
TAP	16	48	0
TAP	16	96	1
TAP	16	96	6
TAP	16	192	5
TAP	16	240	4
TAP	16	288	3
TAP	16	336	2
TAP	17	0	1
TAP	17	0	6
TAP	17	192	2
TAP	17	192	3
TAP	17	288	4
TAP	17	288	5
TAP	18	0	3
TAP	18	48	4
TAP	18	96	2
TAP	18	96	5
TAP	18	192	1
TAP	18	240	1
TAP	18	288	6
TAP	18	336	6
TAP	19	0	0
TAP	19	48	7
TAP	19	96	1
TAP	19	96	6
TAP	19	192	0
TAP	19	192	1
TAP	19	288	2
TAP	19	288	3
TAP	20	0	4
TAP	20	0	5
TAP	20	48	0
TAP	20	96	0
TAP	20	192	6
TAP	20	192	7
TAP	20	288	4
TAP	20	288	5
TAP	21	0	2
TAP	21	0	3
TAP	21	48	7
TAP	21	96	7
TAP	21	192	2
TAP	21	192	5
TAP	21	288	1
TAP	21	288	6
BRK	22	0	0
BRK	22	0	7
STR	22	192	1
SI_	22	192	1	96	48	7
STR	23	0	6
SI_	23	0	6	96	48	0
STR	23	192	2
SI_	23	192	2	96	48	7
STR	24	0	5
SI_	24	0	5	96	48	0
STR	24	192	3
SI_	24	192	3	96	48	7
BRK	25	0	0
TAP	25	192	2
TAP	25	240	2
TAP	25	288	1
TAP	25	288	3
TAP	26	0	0
TAP	26	48	0
TAP	26	96	1
TAP	26	96	7
TAP	26	192	5
TAP	26	240	5
TAP	26	288	4
TAP	26	288	6
TAP	27	0	7
TAP	27	48	7
TAP	27	96	0
TAP	27	96	6
TAP	27	192	7
TAP	27	240	6
TAP	27	288	5
HLD	27	336	4	96
TAP	28	48	3
TAP	28	96	2
TAP	28	144	1
HLD	28	192	0	96
TAP	28	288	7
TAP	29	0	1
TAP	29	0	6
TAP	29	48	2
TAP	29	48	5
TAP	29	96	3
TAP	29	96	4
TAP	29	192	2
TAP	29	240	2
TAP	29	288	3
TAP	29	336	3
TAP	30	0	4
TAP	30	48	4
TAP	30	96	5
TAP	30	192	6
TAP	30	240	6
TAP	30	288	3
TAP	30	336	3
TAP	31	0	4
TAP	31	48	4
TAP	31	96	1
TAP	31	192	6
TAP	31	240	6
TAP	31	288	7
TAP	31	336	7
TAP	32	0	0
TAP	32	48	0
TAP	32	96	1
TAP	32	192	2
TAP	32	240	2
TAP	32	288	7
TAP	32	336	7
TAP	33	0	0
TAP	33	48	0
STR	33	96	5
SCL	33	96	5	96	96	2
TAP	34	0	1
TAP	34	48	1
TAP	34	96	2
TAP	34	144	2
TAP	34	192	3
TAP	34	240	3
TAP	34	288	4
TAP	34	288	5
TAP	35	0	6
TAP	35	48	6
TAP	35	96	5
TAP	35	144	5
TAP	35	192	4
TAP	35	240	4
TAP	35	288	2
TAP	35	288	3
TAP	36	0	1
TAP	36	48	2
TAP	36	96	3
TAP	36	144	4
TAP	36	192	2
TAP	36	192	5
TAP	36	288	1
TAP	36	288	6
STR	37	0	0
SI_	37	0	0	96	48	3
STR	37	0	7
SI_	37	0	7	96	48	4
TAP	37	192	6
TAP	37	240	5
TAP	37	288	4
TAP	37	336	3
TAP	38	0	2
TAP	38	48	1
TAP	38	96	0
TAP	38	96	7
TAP	38	192	1
TAP	38	240	2
TAP	38	288	3
TAP	38	336	4
TAP	39	0	5
TAP	39	48	6
TAP	39	96	0
TAP	39	96	7
TAP	39	192	1
TAP	39	240	4
TAP	39	288	3
TAP	39	336	6
TAP	40	0	0
TAP	40	0	7
TAP	40	96	3
TAP	40	96	4
BRK	40	192	1
BRK	40	192	6
TAP	41	0	2
TAP	41	48	2
TAP	41	96	3
TAP	41	144	3
TAP	41	192	4
TAP	41	240	4
TAP	41	288	3
TAP	41	288	5
TAP	42	0	6
TAP	42	48	6
TAP	42	96	7
TAP	42	144	7
TAP	42	192	0
TAP	42	240	0
TAP	42	288	1
TAP	42	288	7
TAP	42	336	0
TAP	42	336	6
BRK	43	0	1
BRK	43	0	7

T_REC_TAP	240
T_REC_BRK	11
T_REC_XTP	0
T_REC_HLD	8
T_REC_XHO	0
T_REC_STR	12
T_REC_BST	0
T_REC_XST	0
T_REC_TTP	0
T_REC_THO	0
T_REC_SLD	12
T_REC_ALL	283
T_NUM_TAP	252
T_NUM_BRK	11
T_NUM_HLD	8
T_NUM_SLD	12
T_NUM_ALL	283
T_JUDGE_TAP	263
T_JUDGE_HLD	32
T_JUDGE_SLD	12
T_JUDGE_ALL	307
TTM_EACHPAIRS	50
TTM_SCR_TAP	126000
TTM_SCR_BRK	28600
TTM_SCR_HLD	8000
TTM_SCR_SLD	18000
TTM_SCR_ALL	180600
TTM_SCR_S	174150
TTM_SCR_SS	179500
TTM_RAT_ACV	10061

