VERSION	0.00.00	1.03.00
FES_MODE	0
BPM_DEF	 90.000	 90.000	 90.000	 90.000
MET_DEF	4	4
RESOLUTION	384
CLK_DEF	384
COMPATIBLE_CODE	MA2

BPM	0	0	 90.000
MET	0	0	4	4

TAP	5	0	0
TAP	5	0	7
TAP	5	192	0
TAP	5	192	7
TAP	6	0	0
TAP	6	96	0
TAP	6	192	1
TAP	7	0	7
TAP	7	96	7
TAP	7	192	6
TAP	8	0	4
TAP	8	0	5
TAP	8	192	2
TAP	8	192	3
TAP	9	0	3
TAP	9	192	2
TAP	10	0	1
TAP	10	96	1
TAP	10	192	0
TAP	11	0	0
TAP	11	0	1
TAP	11	192	6
TAP	11	192	7
HLD	12	0	5	192
TAP	13	0	6
TAP	13	96	6
HLD	13	192	7	96
TAP	14	0	0
TAP	14	96	0
HLD	14	192	1	96
TAP	15	0	0
TAP	15	192	7
TAP	16	0	0
TAP	16	96	0
TAP	16	192	7
TAP	16	288	7
TAP	17	0	0
TAP	17	0	7
TAP	17	192	0
TAP	17	288	0
HLD	18	0	7	96
TAP	18	192	7
TAP	18	288	7
HLD	19	0	0	96
TAP	19	192	0
TAP	19	288	0
HLD	20	0	1	96
TAP	20	192	7
TAP	20	288	7
HLD	21	0	6	96
TAP	21	192	0
TAP	21	288	7
BRK	22	0	0
STR	22	192	7
SI_	22	192	7	96	96	4
STR	23	192	3
SI_	23	192	3	96	96	0
TAP	24	192	6
TAP	24	192	7
TAP	24	288	0
TAP	24	288	7
TAP	25	0	0
TAP	25	0	1
TAP	25	192	6
TAP	25	288	6
TAP	26	0	7
HLD	26	192	1	96
TAP	27	0	0
TAP	27	192	6
TAP	27	192	7
TAP	28	0	4
TAP	28	0	5
TAP	28	192	3
TAP	28	288	3
TAP	29	0	3
TAP	29	0	4
STR	29	192	4
SI_	29	192	4	96	96	7
TAP	30	192	0
TAP	30	288	0
TAP	31	0	7
TAP	31	96	7
STR	31	192	0
SI_	31	192	0	96	96	3
TAP	32	192	4
TAP	32	288	4
TAP	33	0	3
BRK	33	96	3
BRK	33	96	4
STR	34	0	1
SI_	34	0	1	96	96	6
STR	35	0	7
SI_	35	0	7	96	96	3
STR	36	0	0
SI_	36	0	0	96	96	4
TAP	37	0	2
TAP	37	0	5
TAP	37	192	1
TAP	37	288	0
TAP	38	0	7
TAP	38	96	6
TAP	38	192	0
TAP	38	288	7
TAP	39	0	0
TAP	39	96	7
TAP	39	192	6
TAP	39	288	7
TAP	40	0	0
TAP	40	96	1
TAP	40	192	0
TAP	40	192	7
TAP	41	0	7
TAP	41	96	0
TAP	41	192	6
TAP	41	192	7
TAP	41	288	6
TAP	41	288	7
TAP	42	0	0
TAP	42	96	7
TAP	42	192	0
TAP	42	192	1
TAP	42	288	0
TAP	42	288	1
BRK	43	0	0
BRK	43	0	7

T_REC_TAP	98
T_REC_BRK	5
T_REC_XTP	0
T_REC_HLD	8
T_REC_XHO	0
T_REC_STR	7
T_REC_BST	0
T_REC_XST	0
T_REC_TTP	0
T_REC_THO	0
T_REC_SLD	7
T_REC_ALL	125
T_NUM_TAP	105
T_NUM_BRK	5
T_NUM_HLD	8
T_NUM_SLD	7
T_NUM_ALL	125
T_JUDGE_TAP	110
T_JUDGE_HLD	36
T_JUDGE_SLD	7
T_JUDGE_ALL	153
TTM_EACHPAIRS	21
TTM_SCR_TAP	52500
TTM_SCR_BRK	13000
TTM_SCR_HLD	8000
TTM_SCR_SLD	10500
TTM_SCR_ALL	84000
TTM_SCR_S	81000
TTM_SCR_SS	83500
TTM_RAT_ACV	10059

