VERSION	0.00.00	1.03.00
FES_MODE	0
BPM_DEF	190.000	190.000	190.000	190.000
MET_DEF	4	4
RESOLUTION	384
CLK_DEF	384
COMPATIBLE_CODE	MA2

BPM	0	0	190.000
MET	0	0	4	4

TAP	1	0	2
TAP	1	48	3
TAP	1	96	4
TAP	1	144	5
STR	1	192	6
SCL	1	192	6	96	96	3
TAP	1	288	1
TAP	1	336	1
TAP	2	48	1
TAP	2	96	0
TAP	2	144	7
TAP	2	192	6
TAP	2	240	5
TAP	2	288	4
TAP	2	336	3
TAP	3	48	5
TAP	3	96	6
TAP	3	144	7
STR	3	192	0
SCL	3	192	0	96	96	5
TAP	3	288	2
TAP	3	336	2
TAP	4	48	2
TAP	4	96	3
TAP	4	144	4
TAP	4	192	6
TAP	4	240	5
TAP	4	288	4
TAP	4	336	3
HLD	5	48	0	144
TAP	5	96	7
TAP	5	144	6
STR	5	192	5
SCR	5	192	5	96	96	0
TAP	5	288	2
TAP	5	336	2
TAP	6	48	0
TAP	6	96	7
TAP	6	144	6
TAP	6	192	5
TAP	6	240	4
TAP	6	288	3
TAP	6	336	2
HLD	7	48	2	144
TAP	7	96	3
TAP	7	144	4
HLD	7	192	5	96
TAP	7	288	7
TAP	7	336	0
TAP	8	48	6
TAP	8	96	5
TAP	8	144	4
TAP	8	192	6
TAP	8	240	7
TAP	8	288	0
TAP	8	336	1
HLD	9	96	0	240
TAP	9	192	1
TAP	9	288	3
STR	9	336	3
SCL	9	336	3	96	120	7
TAP	10	240	4
TAP	10	288	5
TAP	10	336	6
TAP	11	48	7
TAP	11	96	6
STR	11	144	5
SUR	11	144	5	96	192	2
HLD	12	192	2	144
TAP	12	336	5
STR	13	48	1
SCR	13	48	1	96	48	3
TAP	13	96	0
TAP	13	144	1
STR	13	240	6
SCL	13	240	6	96	48	4
TAP	13	288	7
TAP	13	336	6
STR	14	48	2
SCR	14	48	2	96	48	4
TAP	14	96	3
TAP	14	144	2
STR	14	240	5
SCL	14	240	5	96	48	3
TAP	14	288	4
TAP	14	336	5
TAP	15	48	7
TAP	15	96	6
TAP	15	144	1
STR	15	240	0
SI_	15	240	0	96	72	3
STR	15	336	3
SI_	15	336	3	96	72	0
STR	16	48	0
SI_	16	48	0	96	72	5
STR	16	144	5
SI_	16	144	5	96	72	0
BRK	17	0	7
HLD	17	96	1	96
TAP	17	144	6
HLD	17	192	4	96
TAP	17	288	7
STR	17	336	3
SI_	17	336	3	96	48	5
STR	17	336	7
SI_	17	336	7	96	48	1
STR	18	240	3
SI_	18	240	3	96	48	5
STR	18	240	7
SI_	18	240	7	96	48	5
STR	19	48	5
SI_	19	48	5	96	48	1
HLD	20	192	2	144
TAP	20	336	5
STR	21	48	1
SI_	21	48	1	96	48	3
TAP	21	96	0
TAP	21	144	1
STR	21	240	6
SI_	21	240	6	96	48	4
TAP	21	288	7
TAP	21	336	6
STR	22	48	2
SI_	22	48	2	96	48	4
TAP	22	96	3
TAP	22	144	2
STR	22	240	5
SI_	22	240	5	96	48	3
TAP	22	288	4
TAP	22	336	5
STR	23	48	0
SI_	23	48	0	96	48	4
TAP	23	96	6
TAP	23	144	6
TAP	23	240	3
HLD	23	336	5	144
STR	24	96	0
SI_	24	96	0	96	48	5
STR	24	192	7
SI_	24	192	7	96	48	2
BRK	25	0	0
STR	25	144	2
SCL	25	144	2	96	72	7
TAP	25	288	4
TAP	26	0	6
STR	26	144	4
SCR	26	144	4	96	72	7
TAP	26	288	2
TAP	27	0	0
STR	27	144	6
SCR	27	144	6	96	72	1
TAP	27	288	4
TAP	28	0	6
STR	28	144	0
SCL	28	144	0	96	72	5
TAP	28	288	2
HLD	29	0	0	96
HLD	29	0	4	96
HLD	29	192	2	96
HLD	29	192	6	96
HLD	30	0	1	96
HLD	30	0	5	96
HLD	30	192	3	96
HLD	30	192	7	96
TAP	31	0	1
TAP	31	48	2
TAP	31	96	3
TAP	31	144	4
TAP	31	192	0
TAP	31	240	7
TAP	31	288	6
TAP	31	336	5
STR	32	0	2
SI_	32	0	2	96	48	4
TAP	32	96	0
STR	32	144	0
SI_	32	144	0	96	48	6
TAP	32	240	1
STR	32	288	1
SI_	32	288	1	96	48	5
STR	33	192	0
SI_	33	192	0	96	48	4
STR	34	0	7
SI_	34	0	7	96	48	5
STR	34	96	1
SI_	34	96	1	96	48	3
STR	34	192	0
SI_	34	192	0	96	48	4
STR	35	0	0
SI_	35	0	0	96	48	2
STR	35	96	6
SI_	35	96	6	96	48	4
STR	35	192	7
SI_	35	192	7	96	48	3
STR	36	0	1
SCL	36	0	1	96	48	7
STR	36	96	6
SCL	36	96	6	96	48	4
STR	36	192	2
SCL	36	192	2	96	48	7
STR	37	0	4
SI_	37	0	4	96	96	7
TAP	37	96	4
STR	37	288	0
SI_	37	288	0	96	48	2
HLD	37	288	1	96
HLD	38	96	6	96
STR	38	96	7
SI_	38	96	7	96	48	5
HLD	38	288	1	96
STR	38	288	2
SI_	38	288	2	96	48	0
STR	39	96	5
SI_	39	96	5	96	48	7
HLD	39	96	6	96
STR	39	288	6
SCL	39	288	6	96	96	3
STR	40	0	3
SCL	40	0	3	96	96	0
STR	40	96	0
SCL	40	96	0	96	96	5
STR	40	192	5
SCL	40	192	5	96	96	2
STR	40	288	2
SI_	40	288	2	96	96	6
STR	41	0	6
SCR	41	0	6	96	96	1
STR	41	96	1
SCR	41	96	1	96	96	4
STR	41	192	4
SCR	41	192	4	96	72	6
BRK	41	288	0
STR	42	0	7
SI_	42	0	7	96	48	5
STR	42	96	1
SI_	42	96	1	96	48	3
STR	42	192	0
SI_	42	192	0	96	48	4
STR	43	0	0
SI_	43	0	0	96	48	2
STR	43	96	6
SI_	43	96	6	96	48	4
STR	43	192	7
SI_	43	192	7	96	48	3
STR	44	0	6
SI_	44	0	6	96	48	4
STR	44	96	7
SI_	44	96	7	96	48	3
STR	44	192	0
SI_	44	192	0	96	48	2
STR	45	0	0
SCR	45	0	0	96	48	2
STR	45	0	4
SCR	45	0	4	96	32	6
HLD	45	288	0	96
STR	45	288	1
SCR	45	288	1	96	48	3
STR	46	96	6
SCL	46	96	6	96	48	4
HLD	46	96	7	96
STR	46	288	1
SCL	46	288	1	96	48	7
HLD	46	288	2	96
HLD	47	96	5	96
STR	47	96	6
SCR	47	96	6	96	48	0
STR	47	288	7
SI_	47	288	7	96	48	3
STR	48	0	0
SI_	48	0	0	96	48	4
STR	48	96	6
SI_	48	96	6	96	48	3
STR	48	192	1
SI_	48	192	1	96	48	4
TAP	49	0	4
TAP	49	96	2
TAP	49	96	5
STR	49	192	3
SI_	49	192	3	96	96	0
STR	49	288	4
SI_	49	288	4	96	384	7
HLD	52	0	0	192
HLD	52	192	2	192
HLD	53	0	4	192
TAP	53	192	6
TAP	53	240	4
TAP	53	288	6
TAP	53	336	4
HLD	54	96	7	240
TAP	54	192	6
TAP	54	288	4
STR	54	336	4
SCR	54	336	4	96	120	0
TAP	55	240	3
TAP	55	288	2
TAP	55	336	1
TAP	56	48	0
TAP	56	96	1
STR	56	144	2
SUL	56	144	2	96	192	5
HLD	57	192	5	144
TAP	57	336	2
STR	58	48	6
SCL	58	48	6	96	48	4
TAP	58	96	7
TAP	58	144	6
STR	58	240	1
SCR	58	240	1	96	48	3
TAP	58	288	0
TAP	58	336	1
STR	59	48	5
SCL	59	48	5	96	48	3
TAP	59	96	4
TAP	59	144	5
STR	59	240	2
SCR	59	240	2	96	48	4
TAP	59	288	3
TAP	59	336	2
TAP	60	48	0
TAP	60	96	1
TAP	60	144	6
STR	60	240	7
SI_	60	240	7	96	72	4
STR	60	336	4
SI_	60	336	4	96	72	7
STR	61	48	7
SI_	61	48	7	96	72	2
STR	61	144	2
SI_	61	144	2	96	72	7
BRK	62	0	0
HLD	62	96	6	96
TAP	62	144	1
HLD	62	192	3	96
TAP	62	288	0
STR	62	336	0
SI_	62	336	0	96	48	6
STR	62	336	4
SI_	62	336	4	96	48	2
STR	63	240	0
SI_	63	240	0	96	48	2
STR	63	240	4
SI_	63	240	4	96	48	2
STR	64	48	2
SI_	64	48	2	96	48	6
HLD	65	192	5	144
TAP	65	336	2
STR	66	48	6
SI_	66	48	6	96	48	4
TAP	66	96	7
TAP	66	144	6
STR	66	240	1
SI_	66	240	1	96	48	3
TAP	66	288	0
TAP	66	336	1
STR	67	48	5
SI_	67	48	5	96	48	3
TAP	67	96	4
TAP	67	144	5
STR	67	240	2
SI_	67	240	2	96	48	4
TAP	67	288	3
TAP	67	336	2
STR	68	48	7
SI_	68	48	7	96	48	3
TAP	68	96	1
TAP	68	144	1
TAP	68	240	4
HLD	68	336	2	144
STR	69	96	7
SI_	69	96	7	96	48	2
STR	69	192	0
SI_	69	192	0	96	48	5
BRK	70	0	7
STR	70	144	5
SCR	70	144	5	96	72	0
TAP	70	288	3
TAP	71	0	1
STR	71	144	3
SCL	71	144	3	96	72	0
TAP	71	288	5
TAP	72	0	7
STR	72	144	1
SCL	72	144	1	96	72	6
TAP	72	288	3
TAP	73	0	1
STR	73	144	7
SCR	73	144	7	96	72	2
TAP	73	288	5
HLD	74	0	3	96
HLD	74	0	7	96
HLD	74	192	1	96
HLD	74	192	5	96
HLD	75	0	2	96
HLD	75	0	6	96
HLD	75	192	0	96
HLD	75	192	4	96
TAP	76	0	6
TAP	76	48	5
TAP	76	96	4
TAP	76	144	3
TAP	76	192	7
TAP	76	240	0
TAP	76	288	1
TAP	76	336	2
STR	77	0	5
SI_	77	0	5	96	48	3
TAP	77	96	7
STR	77	144	7
SI_	77	144	7	96	48	1
TAP	77	240	6
STR	77	288	6
SI_	77	288	6	96	48	2
STR	78	192	0
SI_	78	192	0	96	48	3
STR	78	192	4
SI_	78	192	4	96	48	7
STR	79	0	2
SI_	79	0	2	96	48	4
STR	79	96	1
SI_	79	96	1	96	48	5
STR	79	192	0
SI_	79	192	0	96	48	6
STR	80	0	5
SI_	80	0	5	96	48	3
STR	80	96	6
SI_	80	96	6	96	48	2
STR	80	192	7
SI_	80	192	7	96	48	1
STR	81	0	1
SI_	81	0	1	96	48	3
STR	81	96	0
SI_	81	96	0	96	48	4
STR	81	192	7
SI_	81	192	7	96	48	5
STR	82	0	6
SI_	82	0	6	96	48	3
STR	82	48	1
SI_	82	48	1	96	48	4
STR	82	288	0
SI_	82	288	0	96	48	2
HLD	82	288	1	96
HLD	83	96	6	96
STR	83	96	7
SI_	83	96	7	96	48	5
HLD	83	288	1	96
STR	83	288	2
SI_	83	288	2	96	48	0
STR	84	96	5
SI_	84	96	5	96	48	7
HLD	84	96	6	96
STR	84	288	5
SCL	84	288	5	96	96	2
STR	85	0	2
SCL	85	0	2	96	96	7
STR	85	96	7
SCL	85	96	7	96	96	4
STR	85	192	4
SCL	85	192	4	96	96	1
STR	85	288	1
SCL	85	288	1	96	96	6
STR	86	0	6
SCL	86	0	6	96	96	3
STR	86	96	3
SCL	86	96	3	96	96	0
STR	86	192	0
SI_	86	192	0	96	96	4
STR	87	0	1
SI_	87	0	1	96	48	3
STR	87	96	0
SI_	87	96	0	96	48	4
STR	87	192	7
SI_	87	192	7	96	48	5
STR	88	0	6
SI_	88	0	6	96	48	4
STR	88	96	7
SI_	88	96	7	96	48	3
STR	88	192	0
SI_	88	192	0	96	48	2
STR	89	0	0
SI_	89	0	0	96	48	2
STR	89	96	3
SI_	89	96	3	96	48	7
STR	89	192	6
SI_	89	192	6	96	48	4
STR	89	288	7
SSR	89	288	7	96	144	3
HLD	90	288	0	96
STR	90	288	1
SCR	90	288	1	96	48	3
STR	91	96	6
SCL	91	96	6	96	48	4
HLD	91	96	7	96
STR	91	288	1
SCL	91	288	1	96	48	7
HLD	91	288	2	96
HLD	92	96	5	96
STR	92	96	6
SCR	92	96	6	96	48	0
STR	92	288	0
SI_	92	288	0	96	48	4
STR	93	0	7
SI_	93	0	7	96	48	3
STR	93	96	1
SI_	93	96	1	96	48	4
STR	93	192	6
SI_	93	192	6	96	48	3
TAP	94	0	4
TAP	94	96	2
TAP	94	96	5
STR	94	192	3
SI_	94	192	3	96	96	0
STR	94	288	4
SI_	94	288	4	96	384	7
TAP	96	312	5
TAP	96	336	4
TAP	96	360	3
TAP	97	0	2

T_REC_TAP	162
T_REC_BRK	5
T_REC_XTP	0
T_REC_HLD	50
T_REC_XHO	0
T_REC_STR	150
T_REC_BST	0
T_REC_XST	0
T_REC_TTP	0
T_REC_THO	0
T_REC_SLD	150
T_REC_ALL	517
T_NUM_TAP	312
T_NUM_BRK	5
T_NUM_HLD	50
T_NUM_SLD	150
T_NUM_ALL	517
T_JUDGE_TAP	317
T_JUDGE_HLD	120
T_JUDGE_SLD	150
T_JUDGE_ALL	587
TTM_EACHPAIRS	32
TTM_SCR_TAP	156000
TTM_SCR_BRK	13000
TTM_SCR_HLD	50000
TTM_SCR_SLD	225000
TTM_SCR_ALL	444000
TTM_SCR_S	430200
TTM_SCR_SS	443500
TTM_RAT_ACV	10011

