VERSION	0.00.00	1.03.00
FES_MODE	0
BPM_DEF	190.000	190.000	190.000	190.000
MET_DEF	4	4
RESOLUTION	384
CLK_DEF	384
COMPATIBLE_CODE	MA2

BPM	0	0	190.000
MET	0	0	4	4

TAP	1	48	0
TAP	1	96	0
TAP	1	192	6
TAP	1	240	6
STR	1	336	1
SUR	1	336	1	96	240	4
TAP	3	48	7
TAP	3	96	7
TAP	3	192	1
TAP	3	240	1
STR	3	336	6
SUL	3	336	6	96	240	3
TAP	5	48	1
TAP	5	96	1
TAP	5	192	6
TAP	5	240	6
STR	5	336	0
SUR	5	336	0	96	240	3
TAP	7	48	6
TAP	7	96	6
TAP	7	192	1
TAP	7	240	1
STR	7	336	7
SSR	7	336	7	96	192	3
BRK	8	288	0
HLD	9	0	5	144
HLD	9	144	4	144
TAP	9	288	6
HLD	10	0	2	144
HLD	10	144	3	144
TAP	10	288	1
HLD	11	0	6	144
HLD	11	144	4	144
TAP	11	288	5
HLD	12	0	1	144
HLD	12	144	3	144
TAP	12	288	2
STR	12	336	2
SI_	12	336	2	96	96	5
TAP	13	192	6
TAP	13	288	5
TAP	13	288	7
TAP	14	0	2
TAP	14	96	1
TAP	14	96	3
TAP	14	192	5
TAP	14	288	4
TAP	14	288	6
TAP	15	0	1
TAP	15	96	0
TAP	15	96	2
TAP	15	192	5
TAP	15	288	4
TAP	15	288	6
TAP	16	0	2
TAP	16	96	1
TAP	16	96	3
TAP	16	192	6
TAP	16	288	5
TAP	16	288	7
HLD	17	0	6	144
HLD	17	144	7	144
TAP	17	288	5
HLD	18	0	1	144
HLD	18	144	0	144
TAP	18	288	2
HLD	19	0	5	144
HLD	19	144	7	144
TAP	19	288	6
HLD	20	0	2	144
HLD	20	144	0	144
TAP	20	288	1
STR	20	336	1
SI_	20	336	1	96	96	6
TAP	21	192	5
TAP	21	288	4
TAP	21	288	5
TAP	22	0	1
TAP	22	96	0
TAP	22	96	1
TAP	22	192	6
TAP	22	288	6
TAP	22	288	7
TAP	23	0	2
TAP	23	96	2
TAP	23	96	3
HLD	23	192	2	96
HLD	23	192	5	96
TAP	23	336	0
TAP	23	336	7
TAP	24	48	0
TAP	24	48	7
TAP	24	144	0
STR	24	144	7
SI_	24	144	7	96	96	3
BRK	24	288	0
HLD	25	0	1	192
TAP	25	144	0
TAP	25	192	0
TAP	25	288	2
TAP	25	336	3
STR	26	0	2
SUR	26	0	2	96	192	5
HLD	27	0	6	192
TAP	27	144	7
TAP	27	192	7
TAP	27	288	5
TAP	27	336	4
STR	28	0	5
SUL	28	0	5	96	192	2
HLD	29	0	1	96
TAP	29	96	0
HLD	29	192	6	96
TAP	29	288	7
HLD	30	0	2	96
TAP	30	96	3
HLD	30	192	5	96
TAP	30	288	4
TAP	31	0	2
TAP	31	96	3
TAP	31	192	4
TAP	31	288	5
TAP	32	0	0
TAP	32	0	7
TAP	32	144	0
TAP	32	144	7
STR	32	288	0
SSL	32	288	0	96	192	4
TAP	32	288	7
BRK	33	288	7
TAP	34	0	0
TAP	34	0	7
TAP	34	96	6
TAP	34	144	7
TAP	34	240	1
TAP	34	288	0
TAP	35	0	6
TAP	35	48	7
TAP	35	96	6
STR	35	144	7
SCR	35	144	7	96	96	2
TAP	36	0	3
TAP	36	0	4
TAP	36	96	2
TAP	36	144	3
TAP	36	240	5
TAP	36	288	4
TAP	37	0	2
TAP	37	48	3
TAP	37	96	2
STR	37	144	3
SCR	37	144	3	96	96	6
HLD	38	0	2	96
TAP	38	96	3
HLD	38	192	3	96
TAP	38	288	4
HLD	39	0	4	96
TAP	39	96	5
HLD	39	192	5	96
TAP	39	288	2
TAP	40	0	0
TAP	40	48	7
TAP	40	96	1
TAP	40	144	6
TAP	40	192	2
TAP	40	240	5
TAP	40	336	3
TAP	40	336	4
TAP	41	48	2
TAP	41	48	5
STR	41	144	1
SI_	41	144	1	96	96	4
STR	41	144	6
SI_	41	144	6	96	96	3
TAP	42	0	2
TAP	42	0	5
TAP	42	96	3
TAP	42	144	2
TAP	42	240	4
TAP	42	288	5
TAP	43	0	3
TAP	43	48	4
TAP	43	96	3
STR	43	144	4
SCR	43	144	4	96	96	7
TAP	44	0	1
TAP	44	0	6
TAP	44	96	7
TAP	44	144	6
TAP	44	240	0
TAP	44	288	1
TAP	45	0	7
TAP	45	48	0
TAP	45	96	7
STR	45	144	0
SCR	45	144	0	96	96	3
HLD	46	0	5	96
TAP	46	96	4
HLD	46	192	4	96
TAP	46	288	3
HLD	47	0	3	96
TAP	47	96	2
HLD	47	192	2	96
TAP	47	288	5
HLD	48	0	5	96
TAP	48	96	2
TAP	48	240	2
TAP	48	288	1
TAP	48	336	0
TAP	49	240	5
TAP	49	288	6
STR	49	336	7
SCL	49	336	7	96	720	2
TAP	53	192	0
TAP	53	240	7
TAP	53	288	0
TAP	53	336	7
TAP	54	0	1
TAP	54	0	6
TAP	54	96	7
TAP	54	144	7
TAP	54	240	0
TAP	54	288	0
TAP	55	0	2
TAP	55	0	3
TAP	55	96	0
TAP	55	144	0
TAP	55	240	6
TAP	55	288	6
TAP	56	0	4
TAP	56	0	5
TAP	56	96	7
TAP	56	144	7
TAP	56	240	1
TAP	56	288	1
TAP	57	0	2
TAP	57	0	5
TAP	57	96	1
TAP	57	144	1
TAP	57	240	6
TAP	57	288	6
STR	57	336	1
SI_	57	336	1	96	96	5
TAP	58	192	6
TAP	58	240	7
TAP	58	288	6
TAP	59	0	1
TAP	59	48	0
TAP	59	96	1
TAP	59	192	5
TAP	59	240	4
TAP	59	288	5
TAP	60	0	2
TAP	60	48	3
TAP	60	96	2
TAP	60	192	7
TAP	60	240	0
TAP	60	288	7
TAP	61	0	3
TAP	61	48	4
TAP	61	96	3
STR	61	192	6
SI_	61	192	6	96	48	2
TAP	62	0	0
TAP	62	0	1
TAP	62	96	6
TAP	62	144	6
TAP	62	240	3
TAP	62	288	3
TAP	63	0	6
TAP	63	0	7
TAP	63	96	5
TAP	63	144	5
TAP	63	240	2
TAP	63	288	2
TAP	64	0	0
TAP	64	0	1
TAP	64	96	2
TAP	64	144	2
TAP	64	240	5
TAP	64	288	5
TAP	65	0	6
TAP	65	0	7
TAP	65	96	1
TAP	65	144	1
TAP	65	240	4
TAP	65	288	4
STR	65	336	3
SI_	65	336	3	96	96	7
TAP	66	192	5
TAP	66	240	4
TAP	66	288	5
TAP	67	0	1
TAP	67	48	0
TAP	67	96	1
TAP	67	192	6
TAP	67	240	7
TAP	67	288	6
TAP	68	0	2
TAP	68	48	3
TAP	68	96	2
HLD	68	192	3	96
HLD	68	192	4	96
TAP	68	336	2
TAP	68	336	5
TAP	69	48	1
TAP	69	48	6
TAP	69	144	0
STR	69	144	7
SI_	69	144	7	96	48	3
BRK	69	288	0
HLD	70	0	6	192
TAP	70	144	7
TAP	70	192	7
TAP	70	288	5
TAP	70	336	4
STR	71	0	5
SUL	71	0	5	96	192	2
HLD	72	0	1	192
TAP	72	144	0
TAP	72	192	0
TAP	72	288	2
TAP	72	336	3
STR	73	0	2
SUR	73	0	2	96	192	5
HLD	74	0	6	96
TAP	74	96	7
HLD	74	192	1	96
TAP	74	288	0
HLD	75	0	5	96
TAP	75	96	4
HLD	75	192	2	96
TAP	75	288	3
TAP	76	0	5
TAP	76	96	4
TAP	76	192	3
TAP	76	288	2
TAP	77	0	0
TAP	77	0	7
TAP	77	144	0
TAP	77	144	7
TAP	77	288	0
STR	77	288	7
SUR	77	288	7	96	288	0
TAP	79	0	1
TAP	79	0	6
TAP	79	96	0
TAP	79	144	7
TAP	79	240	7
TAP	79	288	0
TAP	80	0	0
TAP	80	0	5
TAP	80	96	6
TAP	80	144	7
TAP	80	240	7
TAP	80	288	6
TAP	81	0	2
TAP	81	0	7
TAP	81	96	1
TAP	81	144	0
TAP	81	240	0
TAP	81	288	1
TAP	82	0	4
TAP	82	48	3
TAP	82	96	4
HLD	82	144	3	144
TAP	82	288	4
STR	83	0	0
SI_	83	0	0	96	48	4
STR	83	192	7
SI_	83	192	7	96	48	5
STR	84	0	1
SI_	84	0	1	96	48	3
STR	84	192	0
SI_	84	192	0	96	48	4
TAP	85	0	1
TAP	85	48	6
TAP	85	96	2
TAP	85	144	5
TAP	85	192	3
TAP	85	240	4
TAP	85	336	2
TAP	85	336	5
TAP	86	48	1
TAP	86	48	6
STR	86	144	0
SI_	86	144	0	96	96	5
STR	86	144	7
SI_	86	144	7	96	96	2
TAP	87	0	1
TAP	87	0	6
TAP	87	96	0
TAP	87	144	7
TAP	87	240	7
TAP	87	288	0
TAP	88	0	1
TAP	88	0	4
TAP	88	96	2
TAP	88	144	3
TAP	88	240	3
TAP	88	288	2
TAP	89	0	3
TAP	89	0	6
TAP	89	96	5
TAP	89	144	4
TAP	89	240	4
TAP	89	288	5
TAP	90	0	7
TAP	90	48	0
TAP	90	96	7
HLD	90	144	0	144
TAP	90	288	7
STR	91	0	1
SI_	91	0	1	96	48	5
STR	91	192	0
SI_	91	192	0	96	48	6
STR	92	0	2
SI_	92	0	2	96	48	4
STR	92	192	1
SI_	92	192	1	96	48	5
STR	93	0	0
SI_	93	0	0	96	48	4
TAP	93	240	5
TAP	93	288	6
TAP	93	336	7
TAP	94	240	2
TAP	94	288	1
STR	94	336	0
SCR	94	336	0	96	720	5

T_REC_TAP	310
T_REC_BRK	4
T_REC_XTP	0
T_REC_HLD	43
T_REC_XHO	0
T_REC_STR	36
T_REC_BST	0
T_REC_XST	0
T_REC_TTP	0
T_REC_THO	0
T_REC_SLD	36
T_REC_ALL	429
T_NUM_TAP	346
T_NUM_BRK	4
T_NUM_HLD	43
T_NUM_SLD	36
T_NUM_ALL	429
T_JUDGE_TAP	350
T_JUDGE_HLD	112
T_JUDGE_SLD	36
T_JUDGE_ALL	498
TTM_EACHPAIRS	49
TTM_SCR_TAP	173000
TTM_SCR_BRK	10400
TTM_SCR_HLD	43000
TTM_SCR_SLD	54000
TTM_SCR_ALL	280400
TTM_SCR_S	271600
TTM_SCR_SS	280000
TTM_RAT_ACV	10014

