VERSION	0.00.00	1.03.00
FES_MODE	0
BPM_DEF	190.000	190.000	190.000	190.000
MET_DEF	4	4
RESOLUTION	384
CLK_DEF	384
COMPATIBLE_CODE	MA2

BPM	0	0	190.000
MET	0	0	4	4

TAP	9	0	1
TAP	9	96	2
TAP	9	192	3
TAP	9	192	4
TAP	10	0	6
TAP	10	96	5
TAP	10	192	3
TAP	10	192	4
TAP	11	0	3
TAP	11	96	4
TAP	11	192	2
TAP	11	192	5
TAP	12	0	1
TAP	12	96	0
TAP	12	96	1
TAP	12	192	6
TAP	12	288	6
TAP	12	288	7
TAP	13	0	0
TAP	13	96	0
TAP	13	192	7
TAP	13	288	7
TAP	14	0	6
TAP	14	96	6
TAP	14	192	4
TAP	14	192	5
TAP	15	0	7
TAP	15	96	7
TAP	15	192	0
TAP	15	288	0
TAP	16	0	1
TAP	16	96	1
TAP	16	192	2
TAP	16	192	3
TAP	17	0	6
TAP	17	96	5
TAP	17	192	3
TAP	17	192	4
TAP	18	0	1
TAP	18	96	2
TAP	18	192	3
TAP	18	192	4
TAP	19	0	4
TAP	19	96	3
TAP	19	192	2
TAP	19	192	5
TAP	20	0	6
TAP	20	96	6
TAP	20	96	7
TAP	20	192	1
TAP	20	288	0
TAP	20	288	1
TAP	21	0	6
TAP	21	96	5
TAP	21	192	4
TAP	21	288	3
TAP	22	0	2
TAP	22	96	1
TAP	22	192	0
TAP	22	192	7
TAP	23	0	1
TAP	23	96	2
TAP	23	192	3
TAP	23	288	4
TAP	24	0	5
TAP	24	96	6
TAP	24	192	0
TAP	24	192	7
HLD	25	0	2	192
TAP	25	192	3
HLD	26	0	5	192
TAP	26	192	4
HLD	27	0	6	192
TAP	27	192	7
HLD	28	0	1	192
TAP	28	192	0
HLD	29	0	2	192
HLD	29	192	5	192
HLD	30	0	3	192
TAP	30	192	4
TAP	30	288	2
TAP	30	288	5
TAP	31	0	1
TAP	31	96	0
TAP	31	192	7
TAP	31	288	6
TAP	32	0	2
TAP	32	0	5
TAP	32	96	2
TAP	32	96	5
TAP	32	192	1
TAP	32	192	6
TAP	32	288	1
TAP	32	288	6
BRK	33	0	0
BRK	33	0	7
TAP	34	0	2
TAP	34	96	3
TAP	34	192	4
TAP	34	288	5
STR	35	0	6
SI_	35	0	6	96	96	3
TAP	36	0	5
TAP	36	96	4
TAP	36	192	3
TAP	36	288	2
STR	37	0	1
SI_	37	0	1	96	96	4
HLD	38	0	2	192
HLD	38	192	4	192
HLD	39	0	3	192
TAP	39	192	5
TAP	39	288	6
TAP	40	0	7
TAP	40	96	7
TAP	40	192	0
TAP	40	288	0
TAP	41	0	1
TAP	41	0	6
TAP	41	96	1
TAP	41	96	6
BRK	41	192	0
BRK	41	192	7
TAP	42	0	4
TAP	42	96	3
TAP	42	192	2
TAP	42	288	1
STR	43	0	0
SI_	43	0	0	96	96	4
TAP	44	0	3
TAP	44	96	4
TAP	44	192	5
TAP	44	288	6
STR	45	0	7
SI_	45	0	7	96	96	3
HLD	46	0	5	192
HLD	46	192	3	192
HLD	47	0	4	192
TAP	47	192	2
TAP	47	288	1
TAP	48	0	0
TAP	48	96	0
TAP	48	192	7
TAP	48	288	7
TAP	49	0	1
TAP	49	0	6
TAP	49	96	1
TAP	49	96	6
TAP	49	192	2
TAP	49	192	5
TAP	49	288	2
TAP	49	288	5
TAP	50	0	3
TAP	50	0	4
TAP	50	192	2
TAP	50	192	5
STR	51	0	1
SI_	51	0	1	96	192	3
STR	52	0	7
SI_	52	0	7	96	192	5
STR	53	0	0
SI_	53	0	0	96	192	4
TAP	54	0	2
TAP	54	96	3
TAP	54	192	1
TAP	54	192	4
TAP	55	0	5
TAP	55	96	4
TAP	55	192	3
TAP	55	192	6
TAP	56	0	7
TAP	56	96	0
TAP	56	192	1
TAP	56	192	6
TAP	57	0	5
TAP	57	96	4
TAP	57	96	5
TAP	57	192	2
TAP	57	288	2
TAP	57	288	3
TAP	58	0	1
TAP	58	96	1
TAP	58	192	2
TAP	58	288	2
TAP	59	0	3
TAP	59	96	3
TAP	59	192	2
TAP	59	192	4
TAP	60	0	6
TAP	60	96	6
TAP	60	192	5
TAP	60	288	5
TAP	61	0	4
TAP	61	96	4
TAP	61	192	3
TAP	61	192	5
TAP	62	0	5
TAP	62	96	4
TAP	62	192	3
TAP	62	192	6
TAP	63	0	2
TAP	63	96	3
TAP	63	192	1
TAP	63	192	4
TAP	64	0	0
TAP	64	96	7
TAP	64	192	1
TAP	64	192	6
TAP	65	0	2
TAP	65	96	2
TAP	65	96	3
TAP	65	192	5
TAP	65	288	4
TAP	65	288	5
TAP	66	0	6
TAP	66	96	5
TAP	66	192	4
TAP	66	288	3
TAP	67	0	2
TAP	67	96	1
TAP	67	192	0
TAP	67	192	7
TAP	68	0	2
TAP	68	96	3
TAP	68	192	4
TAP	68	288	5
TAP	69	0	1
TAP	69	0	6
TAP	69	96	1
TAP	69	96	6
TAP	69	192	0
TAP	69	192	7
TAP	69	288	0
TAP	69	288	7
HLD	70	0	1	192
TAP	70	192	0
HLD	71	0	6	192
TAP	71	192	7
HLD	72	0	5	192
TAP	72	192	4
HLD	73	0	2	192
TAP	73	192	3
HLD	74	0	1	192
HLD	74	192	6	192
HLD	75	0	0	192
TAP	75	192	7
TAP	75	288	1
TAP	75	288	6
TAP	76	0	2
TAP	76	96	2
TAP	76	96	3
TAP	76	192	5
TAP	76	288	4
TAP	76	288	5
TAP	77	0	6
TAP	77	96	7
TAP	77	192	0
TAP	77	288	1
BRK	78	0	0
BRK	78	0	7
TAP	79	0	2
TAP	79	96	2
TAP	79	96	3
TAP	79	192	5
TAP	79	288	4
TAP	79	288	5
STR	80	0	6
SI_	80	0	6	96	96	3
TAP	81	0	5
TAP	81	96	4
TAP	81	96	5
TAP	81	192	2
TAP	81	288	2
TAP	81	288	3
STR	82	0	1
SI_	82	0	1	96	96	4
HLD	83	0	2	192
HLD	83	192	4	192
HLD	84	0	3	192
TAP	84	192	5
TAP	84	288	6
TAP	85	0	7
TAP	85	96	7
TAP	85	192	0
TAP	85	288	0
TAP	86	0	1
TAP	86	0	6
TAP	86	96	1
TAP	86	96	6
BRK	86	192	0
BRK	86	192	7
TAP	87	0	5
TAP	87	96	4
TAP	87	96	6
TAP	87	192	2
TAP	87	288	1
TAP	87	288	3
STR	88	0	0
SI_	88	0	0	96	96	4
TAP	89	0	2
TAP	89	96	1
TAP	89	96	3
TAP	89	192	5
TAP	89	288	4
TAP	89	288	6
STR	90	0	7
SI_	90	0	7	96	96	3
HLD	91	0	5	192
HLD	91	192	3	192
HLD	92	0	4	192
TAP	92	192	2
TAP	92	288	1
TAP	93	0	0
TAP	93	96	0
TAP	93	192	7
TAP	93	288	7
TAP	94	0	1
TAP	94	0	6
TAP	94	96	2
TAP	94	96	5
TAP	94	192	3
TAP	94	192	4
STR	94	288	3
SCL	94	288	3	96	576	0
STR	94	288	4
SCR	94	288	4	96	576	7

T_REC_TAP	266
T_REC_BRK	8
T_REC_XTP	0
T_REC_HLD	26
T_REC_XHO	0
T_REC_STR	13
T_REC_BST	0
T_REC_XST	0
T_REC_TTP	0
T_REC_THO	0
T_REC_SLD	13
T_REC_ALL	326
T_NUM_TAP	279
T_NUM_BRK	8
T_NUM_HLD	26
T_NUM_SLD	13
T_NUM_ALL	326
T_JUDGE_TAP	287
T_JUDGE_HLD	104
T_JUDGE_SLD	13
T_JUDGE_ALL	404
TTM_EACHPAIRS	65
TTM_SCR_TAP	139500
TTM_SCR_BRK	20800
TTM_SCR_HLD	26000
TTM_SCR_SLD	19500
TTM_SCR_ALL	205800
TTM_SCR_S	198850
TTM_SCR_SS	205000
TTM_RAT_ACV	10039

