VERSION	0.00.00	1.03.00
FES_MODE	0
BPM_DEF	190.000	190.000	190.000	190.000
MET_DEF	4	4
RESOLUTION	384
CLK_DEF	384
COMPATIBLE_CODE	MA2

BPM	0	0	190.000
MET	0	0	4	4

TAP	9	0	0
TAP	9	192	0
TAP	10	0	0
TAP	11	0	1
TAP	11	192	1
TAP	12	0	1
TAP	13	0	2
TAP	13	192	2
TAP	14	0	2
TAP	15	0	3
TAP	15	192	3
TAP	16	0	3
TAP	17	0	4
TAP	17	192	4
TAP	18	0	4
TAP	19	0	5
TAP	19	192	5
TAP	20	0	5
TAP	21	0	6
TAP	21	192	6
TAP	22	0	6
TAP	23	0	7
TAP	23	192	7
TAP	24	0	7
HLD	25	0	0	192
TAP	26	0	0
HLD	27	0	7	192
TAP	28	0	7
HLD	29	0	0	192
HLD	30	0	7	192
HLD	31	0	0	384
HLD	31	0	7	384
BRK	33	0	0
TAP	34	0	7
TAP	34	192	7
TAP	35	0	7
TAP	35	96	7
TAP	36	0	6
TAP	36	192	6
TAP	37	0	6
TAP	37	96	6
TAP	38	0	5
TAP	38	192	4
TAP	39	0	3
TAP	39	192	2
STR	40	0	1
SI_	40	0	1	96	288	4
TAP	42	0	3
TAP	42	192	3
TAP	43	0	3
TAP	43	96	3
TAP	44	0	2
TAP	44	192	2
TAP	45	0	2
TAP	45	96	2
TAP	46	0	1
TAP	46	192	1
TAP	47	0	0
TAP	47	192	7
STR	48	0	6
SI_	48	0	6	96	288	3
BRK	50	0	2
TAP	54	0	0
TAP	54	192	1
TAP	55	0	2
TAP	56	0	3
TAP	56	192	2
TAP	57	0	0
TAP	57	0	1
TAP	58	0	7
TAP	58	192	6
TAP	59	0	5
TAP	60	0	4
TAP	60	192	5
TAP	61	0	6
TAP	61	0	7
TAP	62	0	0
TAP	62	192	1
TAP	63	0	2
TAP	64	0	4
TAP	64	192	5
TAP	65	0	6
TAP	65	0	7
TAP	66	0	7
TAP	66	192	6
TAP	67	0	5
TAP	68	0	3
TAP	68	192	2
TAP	69	0	0
TAP	69	0	1
HLD	70	0	1	192
TAP	71	0	0
TAP	71	192	6
TAP	71	192	7
HLD	72	0	6	192
TAP	73	0	7
TAP	73	192	0
TAP	73	192	1
HLD	74	0	1	192
HLD	75	0	2	192
HLD	76	0	3	192
TAP	77	0	3
TAP	77	0	4
TAP	78	0	3
TAP	78	0	4
TAP	79	0	4
TAP	79	192	4
TAP	80	0	5
TAP	80	96	5
TAP	80	192	5
TAP	81	0	6
TAP	81	192	7
TAP	82	0	0
TAP	82	96	0
TAP	82	192	0
TAP	83	0	1
TAP	83	192	0
TAP	84	0	1
TAP	84	192	0
STR	85	0	1
SI_	85	0	1	96	288	4
TAP	87	0	3
TAP	87	190	3
TAP	88	0	2
TAP	88	96	2
TAP	88	192	2
TAP	89	0	1
TAP	89	192	0
TAP	90	0	7
TAP	90	96	7
TAP	90	192	7
TAP	91	0	6
TAP	91	192	7
TAP	92	0	6
TAP	92	192	7
STR	93	0	6
SI_	93	0	6	96	288	3
STR	95	0	4
SI_	95	0	4	96	288	7

T_REC_TAP	116
T_REC_BRK	2
T_REC_XTP	0
T_REC_HLD	11
T_REC_XHO	0
T_REC_STR	5
T_REC_BST	0
T_REC_XST	0
T_REC_TTP	0
T_REC_THO	0
T_REC_SLD	5
T_REC_ALL	139
T_NUM_TAP	121
T_NUM_BRK	2
T_NUM_HLD	11
T_NUM_SLD	5
T_NUM_ALL	139
T_JUDGE_TAP	123
T_JUDGE_HLD	52
T_JUDGE_SLD	5
T_JUDGE_ALL	180
TTM_EACHPAIRS	9
TTM_SCR_TAP	60500
TTM_SCR_BRK	5200
TTM_SCR_HLD	11000
TTM_SCR_SLD	7500
TTM_SCR_ALL	84200
TTM_SCR_S	81500
TTM_SCR_SS	84000
TTM_RAT_ACV	10023

