VERSION	0.00.00	1.03.00
FES_MODE	0
BPM_DEF	130.000	130.000	130.000	130.000
MET_DEF	4	4
RESOLUTION	384
CLK_DEF	384
COMPATIBLE_CODE	MA2

BPM	0	0	130.000
MET	0	0	4	4

HLD	2	0	0	72
HLD	2	72	4	72
HLD	2	144	3	72
HLD	2	216	7	72
HLD	3	48	6	72
HLD	3	120	5	72
HLD	3	192	1	72
HLD	3	264	2	72
HLD	3	336	3	48
HLD	4	0	7	72
HLD	4	72	4	72
HLD	4	144	0	72
HLD	4	216	3	72
HLD	5	48	1	72
HLD	5	120	0	72
HLD	5	192	4	72
HLD	5	264	3	72
HLD	5	336	6	48
HLD	6	0	7	72
HLD	6	72	0	72
HLD	6	144	1	72
HLD	6	216	2	72
HLD	7	48	5	72
HLD	7	120	7	72
HLD	7	192	1	72
HLD	7	264	3	72
HLD	7	336	4	48
HLD	8	0	2	72
HLD	8	72	0	72
HLD	8	144	6	72
HLD	8	216	4	72
HLD	8	288	0	72
STR	8	360	7
SCR	8	360	7	96	216	2
STR	9	336	0
SCL	9	336	0	96	48	5
TAP	10	0	0
STR	10	144	7
SCR	10	144	7	96	48	2
TAP	10	192	7
STR	10	336	0
SI_	10	336	0	96	48	4
STR	10	336	7
SI_	10	336	7	96	48	3
TAP	11	0	0
TAP	11	0	7
TAP	11	144	1
TAP	11	192	0
STR	11	240	7
SCR	11	240	7	96	48	2
TAP	11	288	6
STR	11	336	5
SI_	11	336	5	96	48	0
TAP	12	0	5
STR	12	144	7
SI_	12	144	7	96	48	2
TAP	12	192	7
STR	12	336	0
SI_	12	336	0	96	48	4
TAP	13	0	0
STR	13	144	0
SI_	13	144	0	96	48	5
STR	13	192	4
SI_	13	192	4	96	48	1
STR	13	336	7
SI_	13	336	7	96	48	3
HLD	14	0	7	96
STR	14	144	0
SI_	14	144	0	96	48	4
HLD	14	192	0	96
STR	14	336	1
SI_	14	336	1	96	48	5
HLD	15	0	1	96
STR	15	144	6
SI_	15	144	6	96	48	1
STR	15	192	2
SI_	15	192	2	96	48	5
STR	15	336	4
SI_	15	336	4	96	48	0
HLD	16	0	4	96
STR	16	144	5
SI_	16	144	5	96	48	1
HLD	16	192	5	96
STR	16	336	6
SI_	16	336	6	96	48	2
HLD	17	0	6	96
STR	17	144	7
SI_	17	144	7	96	48	3
STR	17	192	0
SI_	17	192	0	96	48	4
BRK	17	336	7
STR	18	0	0
SI_	18	0	0	96	96	3
TAP	18	96	7
STR	18	192	6
SI_	18	192	6	96	96	1
TAP	18	288	5
STR	19	0	4
SI_	19	0	4	96	96	7
TAP	19	96	3
STR	19	192	2
SI_	19	192	2	96	96	5
TAP	19	288	1
HLD	20	0	0	288
TAP	20	96	5
TAP	20	192	6
TAP	20	288	7
STR	21	0	0
SI_	21	0	0	96	48	3
STR	21	96	0
SI_	21	96	0	96	48	4
STR	21	192	0
SI_	21	192	0	96	48	5
HLD	22	0	2	144
HLD	22	96	0	144
HLD	22	192	7	144
HLD	22	288	5	144
HLD	23	0	4	144
HLD	23	96	1	192
HLD	23	192	2	96
HLD	24	0	0	48
HLD	24	0	4	48
HLD	24	96	1	48
HLD	24	96	5	48
HLD	24	192	2	48
HLD	24	192	6	48
HLD	24	288	3	48
HLD	24	288	7	48
HLD	25	0	2	48
HLD	25	0	6	48
HLD	25	96	1	48
HLD	25	96	5	48
HLD	25	192	0	96
HLD	25	192	4	96
STR	26	0	0
SI_	26	0	0	96	48	3
TAP	26	48	0
TAP	26	96	7
TAP	26	144	7
STR	26	192	3
SI_	26	192	3	96	48	7
TAP	26	240	3
TAP	26	288	4
TAP	26	336	4
STR	27	0	7
SI_	27	0	7	96	48	4
TAP	27	48	7
TAP	27	96	0
TAP	27	144	0
STR	27	192	4
SI_	27	192	4	96	48	1
TAP	27	240	4
TAP	27	288	3
TAP	27	336	3
STR	28	0	1
SI_	28	0	1	96	48	6
TAP	28	48	1
TAP	28	96	2
TAP	28	144	2
STR	28	192	6
SI_	28	192	6	96	48	3
TAP	28	240	6
TAP	28	288	5
TAP	28	336	5
STR	29	0	3
SI_	29	0	3	96	48	0
STR	29	96	3
SI_	29	96	3	96	48	6
STR	29	192	3
SI_	29	192	3	96	48	7
HLD	30	0	1	96
TAP	30	48	2
HLD	30	96	2	96
TAP	30	144	7
HLD	30	192	7	96
TAP	30	240	6
HLD	30	288	6	96
TAP	30	336	5
HLD	31	0	5	96
TAP	31	48	0
HLD	31	96	0	192
TAP	31	144	1
HLD	31	192	1	96
HLD	32	0	7	48
HLD	32	48	6	48
HLD	32	96	5	48
HLD	32	144	4	48
HLD	32	192	3	48
HLD	32	240	2	48
HLD	32	288	1	48
HLD	32	336	0	48
HLD	33	0	7	48
HLD	33	48	5	48
HLD	33	96	3	48
HLD	33	144	1	48
HLD	33	192	6	48
HLD	33	240	0	48
BRK	33	288	7
TAP	34	0	2
TAP	34	96	1
STR	34	192	0
SI_	34	192	0	96	288	4
BRK	34	288	0
TAP	35	0	5
TAP	35	96	6
STR	35	192	7
SI_	35	192	7	96	288	4
BRK	35	288	7
TAP	36	0	0
TAP	36	96	7
STR	36	192	6
SI_	36	192	6	96	288	1
BRK	36	288	6
TAP	37	0	4
TAP	37	96	3
STR	37	192	2
SI_	37	192	2	96	288	5
BRK	37	288	2
TAP	38	0	3
TAP	38	96	3
STR	38	192	0
SI_	38	192	0	96	48	3
TAP	39	0	4
TAP	39	96	4
STR	39	192	7
SI_	39	192	7	96	48	4
STR	40	0	6
SI_	40	0	6	96	96	1
STR	40	96	1
SI_	40	96	1	96	96	4
STR	40	192	4
SI_	40	192	4	96	96	7
STR	40	288	7
SI_	40	288	7	96	96	3
STR	41	0	3
SI_	41	0	3	96	96	0
STR	41	96	0
SI_	41	96	0	96	96	4
STR	42	0	1
SI_	42	0	1	96	48	6
STR	42	0	2
SCL	42	0	2	96	48	7
STR	42	192	5
SCR	42	192	5	96	48	0
STR	42	192	6
SI_	42	192	6	96	48	1
STR	43	0	0
SI_	43	0	0	96	48	4
STR	43	96	7
SI_	43	96	7	96	48	3
STR	43	192	2
SCL	43	192	2	96	48	7
STR	43	240	2
SCR	43	240	2	96	48	5
STR	44	0	6
SCR	44	0	6	96	48	1
STR	44	192	1
SI_	44	192	1	96	48	6
STR	44	192	2
SCL	44	192	2	96	48	7
STR	45	0	0
SI_	45	0	0	96	48	5
STR	45	96	7
SI_	45	96	7	96	48	2
STR	45	192	4
SI_	45	192	4	96	48	1
STR	45	288	3
SI_	45	288	3	96	48	6
STR	46	0	0
SI_	46	0	0	96	48	3
STR	46	192	0
SI_	46	192	0	96	48	5
STR	47	0	0
SI_	47	0	0	96	48	4
STR	47	96	0
SCR	47	96	0	96	48	3
STR	47	192	0
SCL	47	192	0	96	48	5
STR	48	0	4
SI_	48	0	4	96	24	0
TAP	48	48	4
STR	48	144	1
SI_	48	144	1	96	24	5
STR	48	288	6
SI_	48	288	6	96	24	2
STR	49	0	7
SI_	49	0	7	96	24	3
STR	49	96	0
SI_	49	96	0	96	24	4
STR	49	192	1
SI_	49	192	1	96	24	5
BRK	49	288	7
TAP	49	336	0
TAP	50	0	1
STR	50	96	0
SCL	50	96	0	96	48	5
HLD	50	144	0	96
STR	50	288	5
SCL	50	288	5	96	48	2
HLD	50	336	5	96
STR	51	96	2
SCL	51	96	2	96	48	7
TAP	51	144	4
TAP	51	192	3
TAP	51	240	2
TAP	51	288	1
STR	51	288	7
SCL	51	288	7	96	48	4
TAP	51	336	0
TAP	52	0	7
STR	52	96	4
SCR	52	96	4	96	48	7
STR	52	96	7
SCR	52	96	7	96	48	2
TAP	52	144	4
TAP	52	144	7
STR	52	288	0
SCL	52	288	0	96	48	5
STR	52	288	3
SCL	52	288	3	96	48	0
TAP	52	336	0
TAP	52	336	3
STR	53	96	0
SI_	53	96	0	96	48	5
TAP	53	144	0
STR	53	192	7
SI_	53	192	7	96	48	2
TAP	53	240	7
TAP	53	288	6
TAP	53	336	7
STR	54	0	0
SCL	54	0	0	96	48	5
STR	54	96	0
SCR	54	96	0	96	48	3
STR	54	192	7
SI_	54	192	7	96	48	4
STR	54	288	3
SI_	54	288	3	96	48	0
STR	55	96	6
SI_	55	96	6	96	48	3
STR	55	144	2
SI_	55	144	2	96	48	7
TAP	55	336	7
STR	56	0	0
SI_	56	0	0	96	48	3
TAP	56	96	6
STR	56	144	6
SI_	56	144	6	96	48	3
TAP	56	240	7
STR	56	288	7
SI_	56	288	7	96	48	3
HLD	57	0	6	96
HLD	57	96	7	96
TAP	57	192	0
BRK	57	288	0
BRK	57	288	7
STR	57	336	0
SI_	57	336	0	96	48	4
TAP	58	0	0
STR	58	144	4
SI_	58	144	4	96	48	7
TAP	58	192	4
STR	58	336	7
SCR	58	336	7	96	48	2
TAP	59	0	7
STR	59	144	2
SCR	59	144	2	96	48	5
STR	59	192	2
SCL	59	192	2	96	48	7
STR	59	336	5
SI_	59	336	5	96	48	0
TAP	60	0	5
STR	60	144	0
SI_	60	144	0	96	48	3
TAP	60	192	0
STR	60	336	3
SI_	60	336	3	96	48	7
TAP	61	0	3
STR	61	144	7
SCL	61	144	7	96	48	4
STR	61	192	7
SCR	61	192	7	96	48	2
STR	61	336	4
SI_	61	336	4	96	48	0
HLD	62	0	4	96
STR	62	144	5
SI_	62	144	5	96	48	1
HLD	62	192	5	96
STR	62	336	6
SI_	62	336	6	96	48	2
HLD	63	0	6	96
STR	63	144	1
SCL	63	144	1	96	48	6
STR	63	192	1
SI_	63	192	1	96	48	4
STR	63	336	6
SI_	63	336	6	96	48	2
HLD	64	0	6	96
STR	64	144	5
SI_	64	144	5	96	48	1
HLD	64	192	5	96
STR	64	336	4
SI_	64	336	4	96	48	0
HLD	65	0	4	96
STR	65	144	0
SCR	65	144	0	96	48	3
STR	65	192	0
SI_	65	192	0	96	48	5
STR	65	336	6
SCL	65	336	6	96	96	3
TAP	66	0	6
STR	66	144	1
SCR	66	144	1	96	96	4
TAP	66	192	1
STR	66	336	6
SCR	66	336	6	96	240	1
TAP	67	0	6

T_REC_TAP	83
T_REC_BRK	9
T_REC_XTP	0
T_REC_HLD	91
T_REC_XHO	0
T_REC_STR	117
T_REC_BST	0
T_REC_XST	0
T_REC_TTP	0
T_REC_THO	0
T_REC_SLD	117
T_REC_ALL	417
T_NUM_TAP	200
T_NUM_BRK	9
T_NUM_HLD	91
T_NUM_SLD	117
T_NUM_ALL	417
T_JUDGE_TAP	209
T_JUDGE_HLD	166
T_JUDGE_SLD	117
T_JUDGE_ALL	492
TTM_EACHPAIRS	18
TTM_SCR_TAP	100000
TTM_SCR_BRK	23400
TTM_SCR_HLD	91000
TTM_SCR_SLD	175500
TTM_SCR_ALL	389900
TTM_SCR_S	377350
TTM_SCR_SS	389000
TTM_RAT_ACV	10023

