VERSION	0.00.00	1.03.00
FES_MODE	0
BPM_DEF	130.000	130.000	130.000	130.000
MET_DEF	4	4
RESOLUTION	384
CLK_DEF	384
COMPATIBLE_CODE	MA2

BPM	0	0	130.000
MET	0	0	4	4

TAP	2	0	6
TAP	2	72	5
TAP	2	144	4
TAP	2	216	2
TAP	2	216	3
TAP	3	48	1
TAP	3	120	2
TAP	3	192	3
TAP	3	264	4
TAP	3	336	5
TAP	4	0	6
TAP	4	72	5
TAP	4	144	4
TAP	4	216	2
TAP	4	216	3
TAP	5	48	1
TAP	5	120	2
TAP	5	192	3
TAP	5	264	4
TAP	5	336	5
HLD	6	0	6	72
HLD	6	72	5	72
TAP	6	144	4
TAP	6	216	2
TAP	6	216	3
HLD	7	48	1	72
HLD	7	120	2	72
HLD	7	192	3	72
HLD	7	264	4	72
TAP	7	336	5
HLD	8	0	6	72
HLD	8	72	5	72
HLD	8	144	4	72
HLD	8	216	3	72
STR	8	288	2
SCR	8	288	2	96	192	5
TAP	9	336	7
TAP	10	0	6
TAP	10	48	5
TAP	10	144	1
TAP	10	192	2
TAP	10	240	3
TAP	10	336	5
TAP	11	0	4
TAP	11	48	3
TAP	11	144	0
TAP	11	192	1
TAP	11	240	2
TAP	11	336	6
TAP	12	0	5
TAP	12	48	4
TAP	12	144	7
TAP	12	192	0
TAP	12	240	1
TAP	12	336	3
TAP	13	0	2
TAP	13	48	1
TAP	13	144	6
TAP	13	192	7
TAP	13	240	0
TAP	13	336	2
TAP	14	0	1
HLD	14	48	0	96
TAP	14	144	3
TAP	14	192	4
HLD	14	240	5	96
TAP	14	336	3
TAP	15	0	2
HLD	15	48	1	96
TAP	15	144	6
TAP	15	192	7
TAP	15	240	0
TAP	15	336	5
TAP	16	0	4
HLD	16	48	3	96
TAP	16	144	5
TAP	16	192	6
HLD	16	240	7	96
TAP	16	336	0
TAP	17	0	7
HLD	17	48	6	96
TAP	17	144	4
TAP	17	192	5
TAP	17	240	6
HLD	17	288	7	96
TAP	18	0	2
TAP	18	96	2
TAP	18	192	2
TAP	18	288	1
TAP	18	288	3
TAP	19	0	5
TAP	19	96	5
TAP	19	192	5
TAP	19	288	4
TAP	19	288	6
TAP	20	0	1
TAP	20	96	1
TAP	20	192	1
TAP	20	288	0
TAP	20	288	2
TAP	21	0	6
TAP	21	96	6
TAP	21	192	6
TAP	21	288	5
TAP	21	288	7
STR	22	0	1
SCL	22	0	1	96	192	6
TAP	22	96	5
TAP	22	192	4
TAP	22	288	3
STR	23	0	6
SCR	23	0	6	96	192	1
TAP	23	96	2
TAP	23	192	3
TAP	23	288	4
STR	24	0	6
SCL	24	0	6	96	192	3
TAP	24	96	1
TAP	24	192	0
TAP	24	288	7
STR	25	0	1
SCR	25	0	1	96	192	4
TAP	25	96	6
TAP	25	192	7
BRK	25	288	0
TAP	26	0	0
TAP	26	48	1
TAP	26	96	2
TAP	26	96	4
TAP	26	192	6
TAP	26	240	5
TAP	26	288	2
TAP	26	288	4
TAP	27	0	1
TAP	27	48	2
TAP	27	96	3
TAP	27	96	5
TAP	27	192	0
TAP	27	240	7
TAP	27	288	4
TAP	27	288	6
TAP	28	0	7
TAP	28	48	6
TAP	28	96	0
TAP	28	96	5
TAP	28	192	2
TAP	28	240	3
TAP	28	288	1
TAP	28	288	4
TAP	29	0	0
TAP	29	48	1
TAP	29	96	2
TAP	29	96	7
TAP	29	192	5
TAP	29	240	4
BRK	29	288	3
BRK	29	288	6
STR	30	0	1
SI_	30	0	1	96	96	6
STR	30	192	5
SI_	30	192	5	96	96	2
STR	31	0	0
SCR	31	0	0	96	96	3
STR	31	192	7
SCL	31	192	7	96	96	4
STR	32	0	2
SI_	32	0	2	96	96	6
STR	32	192	5
SI_	32	192	5	96	96	1
STR	33	0	7
SCR	33	0	7	96	96	2
STR	33	192	3
SCR	33	192	3	96	96	6
HLD	34	0	7	144
HLD	34	144	6	144
TAP	34	288	5
HLD	35	0	2	144
HLD	35	144	3	144
TAP	35	288	4
HLD	36	0	5	144
HLD	36	144	1	144
TAP	36	288	3
HLD	37	0	0	144
HLD	37	144	4	144
TAP	37	288	6
STR	38	0	0
SI_	38	0	0	96	96	5
STR	38	144	7
SCR	38	144	7	96	96	2
STR	39	0	7
SI_	39	0	7	96	96	3
STR	39	144	0
SCL	39	144	0	96	96	5
STR	40	0	4
SI_	40	0	4	96	480	0
TAP	41	288	2
TAP	41	336	1
TAP	42	0	0
TAP	42	0	2
TAP	42	96	7
TAP	42	144	6
TAP	42	192	5
TAP	42	192	7
TAP	42	288	1
TAP	42	336	2
TAP	43	0	1
TAP	43	0	3
TAP	43	96	5
TAP	43	144	4
TAP	43	192	3
TAP	43	192	5
TAP	43	240	6
TAP	43	288	7
TAP	43	336	0
TAP	44	0	1
TAP	44	0	3
TAP	44	96	6
TAP	44	144	5
TAP	44	192	4
TAP	44	192	6
TAP	44	288	2
TAP	44	336	3
TAP	45	0	2
TAP	45	0	4
TAP	45	96	5
TAP	45	144	4
TAP	45	192	1
TAP	45	192	3
TAP	45	240	2
TAP	45	288	3
TAP	45	336	4
TAP	46	0	3
TAP	46	0	5
TAP	46	96	0
TAP	46	144	7
TAP	46	192	0
TAP	46	192	6
TAP	46	288	3
TAP	46	336	4
TAP	47	0	3
TAP	47	0	5
BRK	47	96	1
BRK	47	96	3
TAP	47	144	2
BRK	47	192	3
BRK	47	192	5
TAP	47	240	4
TAP	47	336	6
HLD	48	0	6	96
TAP	48	96	5
HLD	48	144	5	96
TAP	48	240	4
STR	48	288	4
SCR	48	288	4	96	192	7
TAP	49	288	2
TAP	49	336	2
HLD	50	0	2	192
TAP	50	96	0
TAP	50	144	0
HLD	50	192	0	192
TAP	50	288	6
TAP	50	336	6
HLD	51	0	6	96
TAP	51	96	4
TAP	51	144	3
TAP	51	192	2
TAP	51	240	1
TAP	51	288	2
TAP	51	336	3
HLD	52	0	3	192
TAP	52	96	5
TAP	52	144	5
HLD	52	192	5	192
TAP	52	288	7
TAP	52	336	7
HLD	53	0	7	96
TAP	53	96	1
TAP	53	144	2
TAP	53	192	3
TAP	53	240	4
TAP	53	288	3
TAP	53	336	2
HLD	54	0	2	192
TAP	54	96	6
TAP	54	144	6
HLD	54	192	6	192
TAP	54	288	0
TAP	54	336	0
HLD	55	0	0	96
BRK	55	96	5
TAP	55	144	6
BRK	55	192	7
TAP	55	240	0
TAP	55	336	0
HLD	56	0	0	96
TAP	56	96	1
HLD	56	144	1	96
TAP	56	240	2
STR	56	288	2
SCL	56	288	2	96	192	7
TAP	57	336	1
TAP	58	0	2
TAP	58	0	4
TAP	58	48	5
TAP	58	144	7
TAP	58	192	4
TAP	58	192	6
TAP	58	240	3
TAP	58	336	2
TAP	59	0	3
TAP	59	0	5
TAP	59	48	6
TAP	59	144	5
TAP	59	192	2
TAP	59	192	4
BRK	59	240	1
TAP	59	336	7
TAP	60	0	0
TAP	60	0	2
TAP	60	48	3
TAP	60	144	4
TAP	60	192	1
TAP	60	192	3
TAP	60	240	0
TAP	60	336	2
TAP	61	0	3
TAP	61	0	5
TAP	61	48	6
TAP	61	144	0
TAP	61	192	5
TAP	61	192	7
BRK	61	240	4
STR	61	336	7
SCR	61	336	7	96	96	2
TAP	62	0	7
STR	62	144	5
SCL	62	144	5	96	96	2
TAP	62	192	5
STR	62	336	0
SCR	62	336	0	96	96	3
TAP	63	0	0
STR	63	144	1
SCL	63	144	1	96	96	6
TAP	63	192	1
STR	63	336	3
SCR	63	336	3	96	96	6
TAP	64	0	3
STR	64	144	7
SCL	64	144	7	96	96	4
TAP	64	192	7
STR	64	336	1
SCR	64	336	1	96	96	4
TAP	65	0	1
STR	65	144	6
SCL	65	144	6	96	96	3
TAP	65	192	6
STR	65	336	0
SI_	65	336	0	96	96	3
TAP	66	0	0
STR	66	144	7
SI_	66	144	7	96	96	4
TAP	66	192	7

T_REC_TAP	253
T_REC_BRK	11
T_REC_XTP	0
T_REC_HLD	38
T_REC_XHO	0
T_REC_STR	30
T_REC_BST	0
T_REC_XST	0
T_REC_TTP	0
T_REC_THO	0
T_REC_SLD	30
T_REC_ALL	362
T_NUM_TAP	283
T_NUM_BRK	11
T_NUM_HLD	38
T_NUM_SLD	30
T_NUM_ALL	362
T_JUDGE_TAP	294
T_JUDGE_HLD	96
T_JUDGE_SLD	30
T_JUDGE_ALL	420
TTM_EACHPAIRS	36
TTM_SCR_TAP	141500
TTM_SCR_BRK	28600
TTM_SCR_HLD	38000
TTM_SCR_SLD	45000
TTM_SCR_ALL	253100
TTM_SCR_S	244450
TTM_SCR_SS	252000
TTM_RAT_ACV	10043

