VERSION	0.00.00	1.03.00
FES_MODE	0
BPM_DEF	130.000	130.000	130.000	130.000
MET_DEF	4	4
RESOLUTION	384
CLK_DEF	384
COMPATIBLE_CODE	MA2

BPM	0	0	130.000
MET	0	0	4	4

STR	2	0	1
SI_	2	0	1	96	192	6
STR	3	0	1
SI_	3	0	1	96	192	4
STR	4	0	6
SI_	4	0	6	96	192	1
STR	5	0	6
SI_	5	0	6	96	192	3
STR	6	0	0
SI_	6	0	0	96	192	5
STR	7	0	0
SI_	7	0	0	96	192	3
STR	8	0	7
SCR	8	0	7	96	288	2
TAP	10	0	0
TAP	10	144	0
TAP	10	192	7
TAP	10	336	7
TAP	11	0	6
TAP	11	144	6
TAP	11	192	5
TAP	11	288	5
TAP	12	0	7
TAP	12	144	7
TAP	12	192	0
TAP	12	336	0
TAP	13	0	1
TAP	13	144	1
TAP	13	192	2
TAP	13	288	2
TAP	14	0	6
TAP	14	144	6
TAP	14	192	5
TAP	14	336	5
TAP	15	0	4
TAP	15	144	4
TAP	15	192	3
TAP	15	288	3
TAP	16	0	1
TAP	16	144	1
TAP	16	192	2
TAP	16	336	2
TAP	17	0	3
TAP	17	144	3
TAP	17	192	4
TAP	17	288	4
TAP	18	0	6
TAP	18	192	6
TAP	19	0	3
TAP	19	192	3
TAP	20	0	1
TAP	20	192	1
TAP	21	0	4
TAP	21	192	4
TAP	22	0	0
TAP	22	192	0
TAP	23	0	5
TAP	23	192	5
TAP	24	0	7
TAP	24	192	7
TAP	25	0	2
TAP	25	192	2
TAP	26	0	4
TAP	26	96	1
TAP	26	192	4
TAP	26	288	1
TAP	27	0	6
TAP	27	96	3
TAP	27	192	6
TAP	27	288	3
TAP	28	0	2
TAP	28	96	7
TAP	28	192	2
TAP	28	288	7
TAP	29	0	0
TAP	29	96	5
TAP	29	192	0
TAP	29	288	5
TAP	30	0	6
TAP	30	96	7
TAP	30	192	0
TAP	30	288	1
TAP	31	0	1
TAP	31	96	0
TAP	31	192	7
TAP	31	288	6
TAP	32	0	5
TAP	32	96	4
TAP	32	192	3
TAP	32	288	2
TAP	32	288	3
TAP	33	0	2
TAP	33	96	3
TAP	33	192	4
TAP	33	288	4
STR	33	288	5
SCR	33	288	5	96	288	0
TAP	35	0	2
TAP	35	96	2
TAP	35	192	2
STR	35	288	2
SCL	35	288	2	96	288	7
TAP	37	0	6
TAP	37	96	6
TAP	37	192	6
STR	37	288	6
SCR	37	288	6	96	288	1
TAP	39	0	1
TAP	39	96	1
TAP	39	192	1
STR	39	288	1
SCL	39	288	1	96	288	6
TAP	39	336	1
BRK	41	288	1
BRK	41	288	6
TAP	42	0	0
TAP	42	96	1
TAP	42	96	6
TAP	42	192	0
TAP	42	288	1
TAP	42	288	6
TAP	43	0	0
TAP	43	96	0
TAP	43	192	7
TAP	43	288	6
TAP	44	0	7
TAP	44	96	1
TAP	44	96	6
TAP	44	192	7
TAP	44	288	1
TAP	44	288	6
TAP	45	0	7
TAP	45	96	7
TAP	45	192	0
TAP	45	288	1
TAP	46	0	0
TAP	46	96	1
TAP	46	96	6
TAP	46	192	0
TAP	46	288	1
TAP	46	288	6
TAP	47	0	0
TAP	47	96	7
TAP	47	192	0
STR	48	0	0
SCR	48	0	0	96	288	3
STR	48	0	7
SCL	48	0	7	96	288	4
TAP	50	0	0
TAP	50	96	1
TAP	50	96	6
TAP	50	192	7
TAP	50	288	1
TAP	50	288	6
TAP	51	0	0
TAP	51	96	1
TAP	51	192	6
TAP	51	288	1
TAP	52	0	7
TAP	52	96	1
TAP	52	96	6
TAP	52	192	0
TAP	52	288	1
TAP	52	288	6
TAP	53	0	7
TAP	53	96	6
TAP	53	192	1
TAP	53	288	6
TAP	54	0	0
TAP	54	96	1
TAP	54	96	6
TAP	54	192	7
TAP	54	288	1
TAP	54	288	6
TAP	55	0	0
TAP	55	0	7
TAP	55	96	1
TAP	55	96	6
TAP	55	192	0
TAP	55	192	7
STR	56	0	0
SCL	56	0	0	96	288	5
STR	56	0	1
SCR	56	0	1	96	288	4
TAP	58	0	2
TAP	58	144	2
TAP	58	192	1
TAP	58	336	1
TAP	59	0	0
TAP	59	144	0
TAP	59	192	7
TAP	59	288	7
TAP	60	0	5
TAP	60	144	5
TAP	60	192	6
TAP	60	336	6
TAP	61	0	7
TAP	61	144	7
TAP	61	192	0
TAP	61	288	0
TAP	62	0	4
TAP	62	144	4
TAP	62	192	3
TAP	62	336	3
TAP	63	0	2
TAP	63	144	2
TAP	63	192	1
TAP	63	288	1
TAP	64	0	3
TAP	64	144	3
TAP	64	192	4
TAP	64	336	4
TAP	65	0	5
TAP	65	144	5
TAP	65	192	6
STR	65	288	6
SCR	65	288	6	96	288	1

T_REC_TAP	183
T_REC_BRK	2
T_REC_XTP	0
T_REC_HLD	0
T_REC_XHO	0
T_REC_STR	16
T_REC_BST	0
T_REC_XST	0
T_REC_TTP	0
T_REC_THO	0
T_REC_SLD	16
T_REC_ALL	217
T_NUM_TAP	199
T_NUM_BRK	2
T_NUM_HLD	0
T_NUM_SLD	16
T_NUM_ALL	217
T_JUDGE_TAP	201
T_JUDGE_HLD	0
T_JUDGE_SLD	16
T_JUDGE_ALL	217
TTM_EACHPAIRS	20
TTM_SCR_TAP	99500
TTM_SCR_BRK	5200
TTM_SCR_HLD	0
TTM_SCR_SLD	24000
TTM_SCR_ALL	128700
TTM_SCR_S	124650
TTM_SCR_SS	128500
TTM_RAT_ACV	10015

