VERSION	0.00.00	1.03.00
FES_MODE	0
BPM_DEF	130.000	130.000	130.000	130.000
MET_DEF	4	4
RESOLUTION	384
CLK_DEF	384
COMPATIBLE_CODE	MA2

BPM	0	0	130.000
MET	0	0	4	4

TAP	2	0	4
TAP	2	192	4
TAP	3	0	4
TAP	3	192	3
TAP	3	288	3
TAP	4	0	3
TAP	4	192	3
TAP	5	0	3
TAP	5	192	4
TAP	5	288	4
TAP	6	0	4
TAP	6	192	4
TAP	7	0	4
BRK	7	192	5
TAP	8	0	6
STR	8	192	7
SI_	8	192	7	96	288	4
TAP	10	0	3
TAP	10	192	3
TAP	11	0	2
HLD	11	192	2	96
TAP	12	0	1
TAP	12	192	1
TAP	13	0	0
HLD	13	192	0	96
TAP	14	0	7
TAP	14	192	7
TAP	15	0	6
HLD	15	192	6	96
TAP	16	0	5
TAP	16	192	5
TAP	17	0	4
HLD	17	192	4	96
HLD	18	0	3	192
HLD	19	0	3	192
HLD	20	0	2	192
HLD	21	0	2	192
TAP	22	0	1
TAP	22	192	0
TAP	23	0	7
TAP	23	192	6
STR	24	0	6
SI_	24	0	6	96	288	1
TAP	26	0	0
TAP	26	192	1
TAP	27	0	2
TAP	27	192	3
TAP	28	0	4
TAP	28	192	5
HLD	29	0	6	192
TAP	30	0	7
TAP	30	192	6
TAP	31	0	5
TAP	31	192	4
TAP	32	0	3
TAP	32	192	2
HLD	33	0	1	192
STR	34	0	0
SI_	34	0	0	96	288	3
STR	36	0	7
SI_	36	0	7	96	288	4
STR	38	0	1
SI_	38	0	1	96	288	4
STR	40	0	6
SI_	40	0	6	96	288	3
TAP	42	0	1
TAP	42	96	1
TAP	42	192	1
TAP	43	0	1
TAP	43	192	0
TAP	43	288	0
TAP	44	0	0
TAP	44	192	0
TAP	45	0	0
TAP	45	192	7
TAP	45	288	7
TAP	46	0	7
TAP	46	192	7
TAP	47	0	7
TAP	47	192	6
TAP	47	288	6
STR	48	0	6
SI_	48	0	6	96	288	1
TAP	50	0	2
TAP	50	96	2
TAP	50	192	2
TAP	51	0	2
TAP	51	192	3
TAP	51	288	3
TAP	52	0	3
TAP	52	192	3
TAP	53	0	3
TAP	53	192	4
TAP	53	288	4
TAP	54	0	4
TAP	54	192	4
TAP	55	0	4
TAP	55	192	5
TAP	55	288	5
STR	56	0	5
SI_	56	0	5	96	288	2
TAP	58	0	1
TAP	58	192	1
TAP	59	0	0
TAP	59	192	0
TAP	60	0	7
TAP	60	192	7
TAP	61	0	6
BRK	61	192	6
TAP	62	0	5
TAP	62	192	4
TAP	63	0	3
TAP	63	192	2
TAP	64	0	2
TAP	64	192	3
TAP	65	0	4
BRK	65	192	5
TAP	66	0	6
STR	66	192	7
SI_	66	192	7	96	288	4

T_REC_TAP	89
T_REC_BRK	3
T_REC_XTP	0
T_REC_HLD	10
T_REC_XHO	0
T_REC_STR	9
T_REC_BST	0
T_REC_XST	0
T_REC_TTP	0
T_REC_THO	0
T_REC_SLD	9
T_REC_ALL	120
T_NUM_TAP	98
T_NUM_BRK	3
T_NUM_HLD	10
T_NUM_SLD	9
T_NUM_ALL	120
T_JUDGE_TAP	101
T_JUDGE_HLD	32
T_JUDGE_SLD	9
T_JUDGE_ALL	142
TTM_EACHPAIRS	0
TTM_SCR_TAP	49000
TTM_SCR_BRK	7800
TTM_SCR_HLD	10000
TTM_SCR_SLD	13500
TTM_SCR_ALL	80300
TTM_SCR_S	77600
TTM_SCR_SS	80000
TTM_RAT_ACV	10037

