VERSION	0.00.00	1.03.00
FES_MODE	0
BPM_DEF	140.000	140.000	140.000	140.000
MET_DEF	4	4
RESOLUTION	384
CLK_DEF	384
COMPATIBLE_CODE	MA2

BPM	0	0	140.000
MET	0	0	4	4

STR	2	192	3
SI_	2	192	3	96	48	7
TAP	3	0	2
TAP	3	24	3
TAP	3	48	1
TAP	3	72	5
TAP	3	96	4
TAP	3	120	7
TAP	3	144	2
TAP	3	168	3
TAP	3	192	0
TAP	3	216	5
TAP	3	240	4
TAP	3	264	6
TAP	3	288	0
TAP	3	336	2
TAP	3	336	4
TAP	4	0	5
TAP	4	24	4
TAP	4	48	6
TAP	4	72	2
TAP	4	96	3
TAP	4	120	0
TAP	4	144	5
TAP	4	168	4
TAP	4	192	7
TAP	4	216	2
TAP	4	240	3
TAP	4	264	1
TAP	4	288	7
TAP	4	336	2
TAP	4	336	4
TAP	5	0	5
TAP	5	24	4
TAP	5	48	6
TAP	5	72	2
TAP	5	96	3
TAP	5	120	0
TAP	5	144	5
TAP	5	168	4
TAP	5	192	7
TAP	5	216	2
TAP	5	240	3
TAP	5	264	1
TAP	5	288	7
TAP	5	336	3
TAP	5	336	5
TAP	6	0	2
TAP	6	24	3
TAP	6	48	1
TAP	6	72	5
TAP	6	96	4
TAP	6	120	7
TAP	6	144	2
TAP	6	168	3
TAP	6	192	0
TAP	6	216	5
TAP	6	240	4
TAP	6	264	6
TAP	6	288	0
TAP	6	336	3
TAP	6	336	5
TAP	7	0	2
TAP	7	24	2
TAP	7	48	3
TAP	7	72	2
TAP	7	96	2
TAP	7	120	5
TAP	7	144	2
TAP	7	168	2
TAP	7	192	7
TAP	7	216	2
TAP	7	240	2
TAP	7	264	5
TAP	7	288	2
TAP	7	312	4
TAP	7	336	3
TAP	7	360	3
TAP	8	0	5
TAP	8	24	5
TAP	8	48	4
TAP	8	72	5
TAP	8	96	5
TAP	8	120	2
TAP	8	144	5
TAP	8	168	5
TAP	8	192	0
TAP	8	216	5
TAP	8	240	5
TAP	8	264	2
TAP	8	288	5
TAP	8	312	3
TAP	8	336	4
TAP	8	360	4
TAP	9	0	1
TAP	9	24	1
TAP	9	48	3
TAP	9	72	1
TAP	9	96	1
TAP	9	120	6
TAP	9	144	1
TAP	9	168	1
TAP	9	192	0
TAP	9	216	1
TAP	9	240	1
TAP	9	264	6
TAP	9	288	1
TAP	9	312	7
TAP	9	336	3
TAP	9	360	3
TAP	10	0	6
TAP	10	24	6
TAP	10	48	4
TAP	10	72	6
TAP	10	96	6
TAP	10	120	1
TAP	10	144	6
TAP	10	168	6
TAP	10	192	7
TAP	10	216	6
TAP	10	240	6
TAP	10	264	0
TAP	10	276	1
TAP	10	288	2
TAP	10	300	3
TAP	10	312	4
TAP	10	312	7
TAP	10	324	6
TAP	10	336	5
TAP	10	348	4
HLD	10	360	0	216
TAP	10	360	3
STR	11	192	7
SI_	11	192	7	96	48	3
BRK	11	288	7
HLD	12	0	1	72
TAP	12	0	5
TAP	12	48	3
STR	12	96	6
SI_	12	96	6	96	48	2
TAP	12	120	0
TAP	12	168	4
TAP	12	216	0
TAP	12	264	0
TAP	12	288	7
TAP	12	312	6
TAP	12	360	6
TAP	13	24	2
TAP	13	48	1
TAP	13	48	3
STR	13	96	5
SI_	13	96	5	96	48	1
TAP	13	120	0
TAP	13	168	4
TAP	13	216	3
TAP	13	264	4
TAP	13	288	4
TAP	13	336	3
TAP	13	336	5
TAP	14	0	2
HLD	14	0	6	72
TAP	14	48	4
STR	14	96	1
SI_	14	96	1	96	48	5
TAP	14	120	7
TAP	14	168	3
TAP	14	216	7
TAP	14	264	7
TAP	14	288	0
TAP	14	312	1
TAP	14	360	1
TAP	15	24	5
TAP	15	48	4
TAP	15	48	6
STR	15	96	2
SI_	15	96	2	96	48	6
TAP	15	120	7
TAP	15	168	3
TAP	15	216	5
TAP	15	264	3
TAP	15	288	3
TAP	15	336	2
TAP	15	336	4
HLD	16	0	1	72
TAP	16	0	5
TAP	16	48	3
STR	16	96	6
SI_	16	96	6	96	48	2
TAP	16	120	0
TAP	16	168	4
TAP	16	216	0
TAP	16	264	0
TAP	16	288	7
TAP	16	312	6
TAP	16	360	6
TAP	17	24	2
TAP	17	48	1
TAP	17	48	3
STR	17	96	5
SI_	17	96	5	96	48	1
TAP	17	120	0
TAP	17	168	4
TAP	17	216	2
TAP	17	264	4
TAP	17	288	4
TAP	17	336	3
TAP	17	336	5
TAP	18	0	2
HLD	18	0	6	72
TAP	18	48	4
STR	18	96	1
SI_	18	96	1	96	48	5
TAP	18	120	7
TAP	18	168	3
TAP	18	216	7
TAP	18	264	7
TAP	18	288	0
TAP	18	336	1
TAP	18	336	6
TAP	19	0	2
HLD	19	0	5	72
HLD	19	72	7	264
HLD	19	144	3	192
HLD	20	0	1	72
TAP	20	0	5
TAP	20	48	3
STR	20	96	6
SCR	20	96	6	96	48	1
TAP	20	120	0
TAP	20	168	0
TAP	20	216	4
STR	20	264	3
SI_	20	264	3	96	48	0
TAP	20	288	4
TAP	20	312	5
TAP	20	360	5
TAP	21	48	4
STR	21	96	5
SI_	21	96	5	96	48	1
TAP	21	120	0
TAP	21	168	0
TAP	21	216	3
TAP	21	264	7
TAP	21	288	7
TAP	21	336	3
TAP	21	336	5
TAP	22	0	2
HLD	22	0	6	72
TAP	22	48	4
STR	22	96	1
SCL	22	96	1	96	48	6
TAP	22	120	7
TAP	22	168	7
TAP	22	216	4
TAP	22	264	3
TAP	22	288	3
STR	23	0	4
SCL	23	0	4	96	48	1
SCR	23	0	4	96	48	7
TAP	23	32	4
TAP	23	64	4
STR	23	192	0
SF_	23	192	0	96	48	4
TAP	23	204	0
TAP	23	216	0
TAP	23	228	0
TAP	23	240	0
TAP	23	252	0
TAP	23	264	0
TAP	23	276	0
TAP	24	0	2
HLD	24	0	6	72
TAP	24	48	4
STR	24	96	1
SI_	24	96	1	96	48	5
TAP	24	120	7
TAP	24	168	7
TAP	24	216	3
STR	24	264	4
SI_	24	264	4	96	48	7
TAP	24	288	2
TAP	24	312	0
TAP	24	360	0
TAP	25	48	3
STR	25	96	2
SI_	25	96	2	96	48	6
TAP	25	120	7
TAP	25	168	7
TAP	25	216	3
TAP	25	264	0
TAP	25	288	0
TAP	25	336	2
TAP	25	336	4
HLD	26	0	1	72
TAP	26	0	5
TAP	26	48	3
TAP	26	96	6
TAP	26	120	0
TAP	26	168	7
TAP	26	192	0
TAP	26	204	1
TAP	26	216	2
TAP	26	228	3
TAP	26	240	4
TAP	26	240	7
TAP	26	252	6
TAP	26	264	5
TAP	26	276	4
TAP	26	288	0
TAP	26	288	3
TAP	26	300	1
TAP	26	312	2
TAP	26	324	3
TAP	26	336	4
TAP	26	336	7
TAP	26	348	6
TAP	26	360	5
TAP	26	372	4
HLD	27	0	0	72
TAP	27	0	3
HLD	27	72	3	216
HLD	27	144	7	240
TAP	28	0	3
TAP	28	32	3
TAP	28	64	3
TAP	28	96	3
TAP	28	96	7
TAP	28	128	3
TAP	28	128	7
TAP	28	160	3
TAP	28	160	7
STR	28	192	3
SI_	28	192	3	96	48	7
SV_	28	192	3	96	48	0
TAP	28	192	6
TAP	28	224	3
TAP	28	224	5
TAP	28	256	3
TAP	28	256	4
TAP	28	288	3
STR	29	0	2
SCR	29	0	2	96	48	5
TAP	29	0	4
HLD	29	72	1	144
TAP	29	216	3
STR	29	288	6
SCL	29	288	6	96	48	3
TAP	29	288	7
TAP	29	312	5
TAP	29	360	1
TAP	30	48	0
STR	30	96	1
SI_	30	96	1	96	48	6
TAP	30	96	7
TAP	30	168	3
HLD	30	216	3	72
TAP	30	288	7
STR	31	0	5
SCL	31	0	5	96	48	2
TAP	31	72	6
TAP	31	168	7
TAP	31	216	3
STR	31	288	1
SCL	31	288	1	96	48	6
TAP	31	288	5
TAP	31	360	3
TAP	32	48	3
HLD	32	96	0	144
TAP	32	168	3
TAP	32	240	3
TAP	32	288	5
TAP	32	336	6
TAP	32	336	7
TAP	33	0	3
STR	33	0	5
SCL	33	0	5	96	48	2
HLD	33	72	6	144
TAP	33	216	4
TAP	33	288	0
STR	33	288	1
SCR	33	288	1	96	48	4
TAP	33	312	2
TAP	33	360	6
TAP	34	48	7
TAP	34	96	0
STR	34	96	6
SI_	34	96	6	96	48	1
TAP	34	168	4
HLD	34	216	4	72
TAP	34	288	0
STR	35	0	2
SCR	35	0	2	96	48	5
TAP	35	72	1
TAP	35	168	0
TAP	35	216	4
TAP	35	288	2
STR	35	288	6
SCR	35	288	6	96	48	1
TAP	35	360	4
TAP	36	48	4
HLD	36	96	7	144
TAP	36	168	4
TAP	36	240	4
TAP	36	288	2
TAP	36	336	0
TAP	36	336	1
HLD	37	0	6	48
TAP	37	48	4
HLD	37	72	5	48
TAP	37	120	3
HLD	37	144	4	48
TAP	37	192	2
HLD	37	216	3	48
TAP	37	264	1
TAP	37	288	2
TAP	37	336	2
HLD	38	0	1	48
TAP	38	48	3
HLD	38	72	2	48
TAP	38	120	4
HLD	38	144	3	48
TAP	38	192	5
HLD	38	216	4	48
TAP	38	264	6
TAP	38	288	5
TAP	38	336	5
HLD	39	0	5	48
TAP	39	48	7
HLD	39	72	6	48
TAP	39	120	0
HLD	39	144	7	48
TAP	39	192	1
HLD	39	216	0	48
TAP	39	264	2
TAP	39	288	1
TAP	39	336	1
HLD	40	0	2	48
TAP	40	48	0
HLD	40	72	1	48
TAP	40	120	7
HLD	40	144	0	48
TAP	40	192	6
HLD	40	216	7	48
TAP	40	264	5
TAP	40	288	6
TAP	40	336	3
TAP	40	336	5
TAP	41	0	2
TAP	41	24	3
TAP	41	48	1
TAP	41	72	5
TAP	41	96	4
TAP	41	120	6
TAP	41	144	2
TAP	41	168	3
TAP	41	192	1
TAP	41	216	5
TAP	41	240	4
TAP	41	264	6
TAP	41	288	0
TAP	41	312	0
TAP	41	336	7
TAP	41	360	2
TAP	42	0	5
TAP	42	24	4
TAP	42	48	6
TAP	42	72	2
TAP	42	96	3
TAP	42	120	1
TAP	42	144	5
TAP	42	168	4
TAP	42	192	6
TAP	42	216	2
TAP	42	240	3
TAP	42	264	1
TAP	42	288	7
TAP	42	312	7
TAP	42	336	0
TAP	42	360	5
TAP	43	0	2
TAP	43	24	2
TAP	43	48	3
TAP	43	72	2
TAP	43	96	2
TAP	43	120	5
TAP	43	144	2
TAP	43	168	2
TAP	43	192	7
TAP	43	216	2
TAP	43	240	2
TAP	43	264	5
TAP	43	288	2
TAP	43	312	4
TAP	43	336	3
TAP	43	360	3
TAP	44	0	6
TAP	44	24	6
TAP	44	48	4
TAP	44	72	6
TAP	44	96	6
TAP	44	120	1
TAP	44	144	6
TAP	44	168	6
TAP	44	192	7
TAP	44	216	6
TAP	44	240	6
TAP	44	264	1
TAP	44	288	6
TAP	44	312	6
TAP	44	336	0
TAP	44	360	7
TAP	45	0	0
TAP	45	12	1
TAP	45	24	2
TAP	45	36	3
TAP	45	48	4
TAP	45	60	5
TAP	45	72	6
TAP	45	84	7
TAP	45	96	0
TAP	45	120	2
TAP	45	144	4
TAP	45	168	6
TAP	45	192	0
TAP	45	224	3
TAP	45	256	6
BRK	45	288	4
BRK	45	288	7
HLD	46	0	3	96
HLD	46	0	5	96
TAP	46	144	2
TAP	46	144	4
STR	46	192	1
SCR	46	192	1	96	48	4
STR	46	192	5
SCR	46	192	5	96	48	0
TAP	46	224	0
TAP	46	224	4
TAP	46	256	0
TAP	46	256	4
TAP	47	0	3
HLD	47	0	7	72
HLD	47	72	1	72
TAP	47	144	3
TAP	47	192	0
TAP	47	192	4
TAP	47	204	1
TAP	47	204	3
TAP	47	288	3
TAP	47	288	7
TAP	47	300	4
TAP	47	300	6
HLD	48	0	2	96
HLD	48	0	4	96
TAP	48	144	3
TAP	48	144	5
STR	48	192	2
SI_	48	192	2	96	48	5
STR	48	192	6
SI_	48	192	6	96	48	1
TAP	48	240	1
TAP	48	240	5
TAP	49	0	4
TAP	49	0	6
TAP	49	12	5
TAP	49	32	7
TAP	49	64	0
TAP	49	96	1
TAP	49	96	3
TAP	49	108	2
TAP	49	128	0
TAP	49	160	7
STR	49	192	1
SXR	49	192	1	96	48	7
STR	49	192	6
SXL	49	192	6	96	48	0
TAP	49	204	2
TAP	49	204	5
TAP	49	216	3
TAP	49	216	4
HLD	50	0	2	96
HLD	50	0	5	96
TAP	50	144	3
TAP	50	144	4
STR	50	192	1
SCR	50	192	1	96	48	3
STR	50	192	6
SCL	50	192	6	96	48	4
TAP	50	224	2
TAP	50	224	5
TAP	50	256	0
TAP	50	256	7
STR	50	288	1
SLL	50	288	1	96	96	4
STR	50	288	6
SLR	50	288	6	96	96	3
TAP	51	0	1
TAP	51	0	6
TAP	51	192	1
TAP	51	192	3
TAP	51	208	0
TAP	51	208	4
TAP	51	256	4
TAP	51	256	6
TAP	51	272	3
TAP	51	272	7
TAP	51	320	2
TAP	51	320	5
TAP	51	336	1
TAP	51	336	6
TAP	52	0	2
TAP	52	0	5
STR	52	96	3
SCL	52	96	3	96	48	0
STR	52	96	4
SI_	52	96	4	96	48	0
TAP	52	144	2
TAP	52	144	5
STR	52	192	3
SI_	52	192	3	96	48	7
STR	52	192	4
SCR	52	192	4	96	48	7
TAP	52	288	3
TAP	52	288	4
BRK	53	0	0
BRK	53	0	7
TAP	53	32	1
TAP	53	64	2
BST	53	96	3
SCL	53	96	3	96	96	4
BST	53	96	4
SXL	53	96	4	96	96	3
TAP	53	128	5
TAP	53	160	6
BRK	53	192	3
BRK	53	192	4
TAP	54	0	2
HLD	54	0	6	72
TAP	54	48	4
TAP	54	96	1
STR	54	120	5
SI_	54	120	5	96	48	1
TAP	54	168	3
STR	54	216	5
SI_	54	216	5	96	24	3
TAP	54	264	0
TAP	54	288	0
TAP	54	312	5
TAP	54	360	7
TAP	55	48	4
TAP	55	48	6
TAP	55	96	3
STR	55	120	4
SI_	55	120	4	96	48	0
TAP	55	168	2
STR	55	216	4
SI_	55	216	4	96	24	6
TAP	55	264	2
TAP	55	288	3
TAP	55	312	4
TAP	55	336	2
HLD	56	0	1	72
TAP	56	0	5
TAP	56	48	3
TAP	56	96	6
STR	56	120	2
SI_	56	120	2	96	48	6
TAP	56	168	4
STR	56	216	2
SI_	56	216	2	96	24	4
TAP	56	264	7
TAP	56	288	7
TAP	56	312	2
TAP	56	360	0
TAP	57	48	1
TAP	57	48	3
TAP	57	96	4
STR	57	120	3
SI_	57	120	3	96	48	7
TAP	57	168	5
STR	57	216	3
SI_	57	216	3	96	24	1
TAP	57	264	5
TAP	57	288	4
TAP	57	312	3
TAP	57	336	5
TAP	58	0	2
HLD	58	0	6	72
TAP	58	48	4
TAP	58	96	1
STR	58	120	5
SLL	58	120	5	96	48	1
TAP	58	168	3
STR	58	216	5
SI_	58	216	5	96	24	7
TAP	58	264	0
TAP	58	288	0
TAP	58	312	5
TAP	58	360	3
TAP	59	48	4
TAP	59	48	6
TAP	59	96	3
STR	59	120	4
SI_	59	120	4	96	48	0
TAP	59	168	2
STR	59	216	4
SI_	59	216	4	96	24	6
TAP	59	264	2
TAP	59	288	3
TAP	59	312	4
TAP	59	336	2
HLD	60	0	1	72
TAP	60	0	5
TAP	60	48	3
TAP	60	96	6
STR	60	120	2
SLR	60	120	2	96	48	6
TAP	60	168	4
STR	60	216	2
SI_	60	216	2	96	24	0
TAP	60	264	7
TAP	60	288	7
TAP	60	312	2
TAP	60	336	4
HLD	61	0	2	72
TAP	61	0	5
HLD	61	72	0	264
HLD	61	144	4	192
TAP	62	0	2
HLD	62	0	6	72
STR	62	48	4
SCL	62	48	4	96	48	1
TAP	62	96	0
TAP	62	120	7
STR	62	144	4
SI_	62	144	4	96	24	6
TAP	62	168	5
TAP	62	216	3
STR	62	264	1
SI_	62	264	1	96	48	5
TAP	62	288	0
TAP	62	312	3
STR	62	360	1
SI_	62	360	1	96	24	3
TAP	62	360	7
TAP	63	48	4
STR	63	96	6
SI_	63	96	6	96	48	2
TAP	63	120	7
TAP	63	168	4
TAP	63	216	3
TAP	63	264	7
TAP	63	288	7
TAP	63	336	2
TAP	63	336	4
HLD	64	0	1	72
TAP	64	0	5
STR	64	48	3
SCR	64	48	3	96	48	6
TAP	64	96	7
TAP	64	120	0
STR	64	144	3
SI_	64	144	3	96	24	1
TAP	64	168	2
TAP	64	216	4
TAP	64	264	7
TAP	64	288	7
STR	65	0	1
SXL	65	0	1	96	48	0
STR	65	0	5
SXL	65	0	5	96	48	4
TAP	65	32	1
TAP	65	32	5
TAP	65	64	1
TAP	65	64	5
BRK	65	192	3
BRK	65	192	7
BRK	65	256	1
BRK	65	256	5
BRK	65	320	3
BRK	65	320	7
HLD	66	0	1	72
TAP	66	0	5
STR	66	48	3
SCR	66	48	3	96	48	6
TAP	66	96	7
TAP	66	120	0
STR	66	144	3
SI_	66	144	3	96	24	1
TAP	66	168	2
TAP	66	216	4
STR	66	264	6
SI_	66	264	6	96	48	2
TAP	66	288	7
TAP	66	312	4
TAP	66	360	0
STR	66	360	6
SI_	66	360	6	96	24	4
TAP	67	48	3
STR	67	96	1
SI_	67	96	1	96	48	5
TAP	67	120	0
TAP	67	168	4
TAP	67	216	4
TAP	67	264	7
TAP	67	288	2
TAP	67	312	2
TAP	67	336	3
TAP	67	360	1
TAP	68	0	5
TAP	68	24	4
TAP	68	48	6
TAP	68	72	2
TAP	68	96	3
TAP	68	120	1
TAP	68	144	5
TAP	68	168	5
TAP	68	192	0
TAP	68	204	1
TAP	68	216	2
TAP	68	228	3
TAP	68	240	4
TAP	68	240	7
TAP	68	252	6
TAP	68	264	5
TAP	68	276	4
TAP	68	288	0
TAP	68	288	3
TAP	68	300	1
TAP	68	312	2
TAP	68	324	3
TAP	68	336	4
TAP	68	336	7
TAP	68	348	6
TAP	68	360	5
TAP	68	372	4
HLD	69	0	0	72
TAP	69	0	3
HLD	69	72	4	72
HLD	69	144	7	240
BST	70	0	1
SI_	70	0	1	96	48	5
BRK	70	32	3
BRK	70	64	4
BST	70	96	5
SI_	70	96	5	96	48	1
BRK	70	128	7
BRK	70	160	0
BRK	70	192	2
BRK	70	224	3
BRK	70	256	4
BST	70	288	1
SI_	70	288	1	96	32	6
BST	70	288	5
SI_	70	288	5	96	32	2
BRK	71	0	1
BRK	71	0	5

T_REC_TAP	621
T_REC_BRK	22
T_REC_XTP	0
T_REC_HLD	58
T_REC_XHO	0
T_REC_STR	71
T_REC_BST	6
T_REC_XST	0
T_REC_TTP	0
T_REC_THO	0
T_REC_SLD	79
T_REC_ALL	857
T_NUM_TAP	692
T_NUM_BRK	28
T_NUM_HLD	58
T_NUM_SLD	79
T_NUM_ALL	857
T_JUDGE_TAP	720
T_JUDGE_HLD	128
T_JUDGE_SLD	79
T_JUDGE_ALL	927
TTM_EACHPAIRS	112
TTM_SCR_TAP	346000
TTM_SCR_BRK	72800
TTM_SCR_HLD	58000
TTM_SCR_SLD	118500
TTM_SCR_ALL	595300
TTM_SCR_S	574750
TTM_SCR_SS	592500
TTM_RAT_ACV	10047

