VERSION	0.00.00	1.03.00
FES_MODE	0
BPM_DEF	140.000	140.000	140.000	140.000
MET_DEF	4	4
RESOLUTION	384
CLK_DEF	384
COMPATIBLE_CODE	MA2

BPM	0	0	140.000
MET	0	0	4	4

STR	2	288	3
SI_	2	288	3	96	24	7
HLD	3	0	2	72
HLD	3	72	6	72
HLD	3	144	3	72
HLD	3	216	5	72
STR	3	288	4
SI_	3	288	4	96	24	0
HLD	4	0	1	72
HLD	4	72	5	72
HLD	4	144	2	72
HLD	4	216	4	72
STR	4	288	3
SI_	4	288	3	96	24	7
HLD	5	0	0	72
HLD	5	72	6	72
HLD	5	144	4	72
HLD	5	216	2	72
STR	5	288	0
SI_	5	288	0	96	24	3
HLD	6	0	2	72
HLD	6	72	4	72
HLD	6	144	6	72
HLD	6	216	0	72
STR	6	288	2
SI_	6	288	2	96	24	6
TAP	7	0	5
TAP	7	24	5
TAP	7	72	3
TAP	7	96	3
TAP	7	144	1
TAP	7	168	1
TAP	7	216	7
TAP	7	240	7
TAP	7	288	1
TAP	7	312	1
TAP	7	336	3
TAP	7	360	3
TAP	8	0	4
TAP	8	24	5
TAP	8	72	5
TAP	8	96	4
TAP	8	144	4
TAP	8	168	3
TAP	8	216	3
TAP	8	240	2
TAP	8	288	1
TAP	8	312	0
TAP	8	336	1
TAP	8	360	0
TAP	9	0	1
TAP	9	24	2
TAP	9	72	2
TAP	9	96	3
TAP	9	144	3
TAP	9	168	4
TAP	9	216	4
TAP	9	240	5
TAP	9	288	6
TAP	9	312	7
TAP	9	336	6
TAP	9	360	7
TAP	10	0	6
TAP	10	24	6
TAP	10	72	4
TAP	10	96	4
TAP	10	144	2
TAP	10	168	2
TAP	10	216	0
TAP	10	240	0
BRK	10	288	7
TAP	10	312	6
BRK	10	336	0
TAP	10	360	7
HLD	12	0	1	96
TAP	12	48	2
TAP	12	96	4
TAP	12	144	5
TAP	12	168	4
TAP	12	168	6
TAP	12	216	2
TAP	12	216	4
TAP	12	264	1
TAP	12	288	0
TAP	12	288	7
TAP	13	0	2
TAP	13	48	3
TAP	13	48	4
TAP	13	96	5
TAP	13	144	2
TAP	13	168	0
TAP	13	168	1
TAP	13	216	0
TAP	13	216	7
TAP	13	264	6
TAP	13	264	7
TAP	13	336	5
HLD	14	0	4	96
TAP	14	48	3
TAP	14	96	1
TAP	14	144	0
TAP	14	168	1
TAP	14	168	7
TAP	14	216	1
TAP	14	216	3
TAP	14	264	4
TAP	14	288	5
TAP	14	288	6
TAP	15	0	3
TAP	15	48	1
TAP	15	48	2
TAP	15	96	0
TAP	15	144	3
TAP	15	168	4
TAP	15	168	5
TAP	15	216	5
TAP	15	216	6
TAP	15	264	6
TAP	15	264	7
TAP	15	336	0
HLD	16	0	1	96
TAP	16	48	2
TAP	16	96	4
TAP	16	144	5
TAP	16	168	4
TAP	16	168	6
TAP	16	216	2
TAP	16	216	4
TAP	16	264	1
TAP	16	288	0
TAP	16	288	7
TAP	17	0	2
TAP	17	48	3
TAP	17	48	4
TAP	17	96	5
TAP	17	144	2
TAP	17	168	0
TAP	17	168	1
TAP	17	216	0
TAP	17	216	7
TAP	17	264	6
TAP	17	264	7
TAP	17	336	5
HLD	18	0	4	96
TAP	18	48	3
TAP	18	96	1
TAP	18	144	0
TAP	18	168	1
TAP	18	168	7
TAP	18	216	1
TAP	18	216	3
TAP	18	264	4
TAP	18	288	5
TAP	18	288	6
HLD	19	0	1	72
HLD	19	72	7	72
HLD	19	144	5	240
STR	20	0	7
SI_	20	0	7	96	48	3
TAP	20	144	2
TAP	20	168	2
TAP	20	168	4
TAP	20	216	0
TAP	20	216	1
TAP	20	264	7
STR	20	288	6
SI_	20	288	6	96	48	2
TAP	20	288	7
TAP	20	336	5
TAP	21	0	3
TAP	21	48	1
TAP	21	96	7
TAP	21	120	3
TAP	21	168	4
TAP	21	168	5
TAP	21	216	5
TAP	21	216	7
TAP	21	264	0
TAP	21	264	7
TAP	21	336	1
STR	22	0	2
SI_	22	0	2	96	48	6
TAP	22	144	7
TAP	22	168	5
TAP	22	168	7
TAP	22	216	0
TAP	22	216	7
TAP	22	264	1
STR	22	288	1
SI_	22	288	1	96	48	5
TAP	22	288	2
TAP	22	336	3
TAP	23	0	6
TAP	23	32	6
TAP	23	64	6
HLD	23	96	7	96
TAP	23	192	5
TAP	23	204	4
TAP	23	216	3
TAP	23	228	2
TAP	23	240	1
TAP	23	252	0
TAP	23	264	7
TAP	23	276	6
BRK	23	288	5
STR	24	0	0
SI_	24	0	0	96	48	4
TAP	24	144	5
TAP	24	168	3
TAP	24	168	5
TAP	24	216	6
TAP	24	216	7
TAP	24	264	0
TAP	24	288	0
STR	24	288	1
SI_	24	288	1	96	48	5
TAP	24	336	2
TAP	25	0	4
TAP	25	48	6
TAP	25	96	0
TAP	25	120	4
TAP	25	168	2
TAP	25	168	3
TAP	25	216	0
TAP	25	216	2
TAP	25	264	0
TAP	25	264	7
TAP	25	336	6
STR	26	0	5
SI_	26	0	5	96	48	1
TAP	26	144	0
TAP	26	168	0
TAP	26	168	2
TAP	26	216	0
TAP	26	216	7
TAP	26	264	5
TAP	26	288	3
TAP	26	288	4
TAP	26	336	1
HLD	27	0	2	72
HLD	27	72	4	72
HLD	27	144	6	528
BRK	28	288	7
STR	29	0	1
SI_	29	0	1	96	48	5
HLD	29	96	7	144
TAP	29	240	5
TAP	29	288	4
TAP	29	312	4
HLD	29	360	0	72
HLD	30	48	2	72
TAP	30	120	4
HLD	30	168	2	72
TAP	30	240	1
TAP	30	288	7
TAP	30	336	3
STR	31	0	5
SI_	31	0	5	96	48	1
HLD	31	96	2	144
TAP	31	240	3
TAP	31	288	4
TAP	31	312	4
HLD	31	360	7	72
HLD	32	48	5	72
TAP	32	120	3
HLD	32	168	5	72
TAP	32	240	7
TAP	32	288	3
TAP	32	336	5
STR	33	0	1
SI_	33	0	1	96	48	5
HLD	33	96	7	144
TAP	33	240	6
TAP	33	288	5
TAP	33	312	5
HLD	33	360	3	72
TAP	34	48	4
TAP	34	96	6
TAP	34	120	6
TAP	34	168	0
HLD	34	216	1	72
TAP	34	288	7
TAP	34	336	5
STR	35	0	4
SI_	35	0	4	96	48	0
STR	35	72	4
SI_	35	72	4	96	48	1
TAP	35	240	7
TAP	35	288	6
TAP	35	312	6
HLD	35	360	3	72
HLD	36	48	5	72
TAP	36	120	7
HLD	36	168	5	72
TAP	36	240	3
TAP	36	288	1
TAP	36	288	2
TAP	36	336	0
TAP	36	336	7
STR	37	0	6
SI_	37	0	6	96	48	2
BRK	37	72	2
STR	37	72	6
SI_	37	72	6	96	48	3
BRK	37	144	6
HLD	37	216	5	72
TAP	37	288	1
TAP	37	336	3
TAP	37	360	3
HLD	38	0	1	72
HLD	38	72	7	72
HLD	38	144	5	72
TAP	38	216	3
TAP	38	288	1
TAP	38	336	3
TAP	38	360	3
STR	39	0	4
SI_	39	0	4	96	48	1
BRK	39	72	1
STR	39	72	4
SI_	39	72	4	96	48	0
BRK	39	144	4
HLD	39	216	6	72
TAP	39	288	5
TAP	39	336	3
TAP	39	360	3
HLD	40	0	2	72
HLD	40	72	4	72
HLD	40	144	6	72
TAP	40	216	0
TAP	40	288	7
TAP	40	336	5
TAP	40	360	5
TAP	41	0	3
TAP	41	72	4
TAP	41	144	5
TAP	41	216	6
TAP	41	288	7
TAP	41	336	7
TAP	42	0	5
TAP	42	72	4
TAP	42	144	3
TAP	42	216	2
TAP	42	288	1
TAP	42	336	1
TAP	43	0	3
TAP	43	24	4
TAP	43	72	4
TAP	43	96	5
TAP	43	144	5
TAP	43	168	6
TAP	43	216	6
TAP	43	240	7
TAP	43	288	0
TAP	43	312	1
TAP	43	336	0
TAP	43	360	1
TAP	44	0	0
TAP	44	24	0
TAP	44	72	6
TAP	44	96	6
TAP	44	144	4
TAP	44	168	4
TAP	44	216	2
TAP	44	240	2
TAP	44	288	0
TAP	44	312	7
TAP	44	336	0
TAP	44	360	7
TAP	45	0	0
TAP	45	12	1
TAP	45	24	2
TAP	45	36	3
TAP	45	48	4
TAP	45	60	5
TAP	45	72	6
TAP	45	84	7
TAP	45	96	5
TAP	45	120	0
TAP	45	144	3
TAP	45	168	1
TAP	45	192	7
TAP	45	224	5
TAP	45	256	3
STR	45	288	0
SI_	45	288	0	96	48	4
BRK	45	288	1
HLD	46	0	2	144
TAP	46	144	5
BRK	46	192	4
BRK	46	224	3
BRK	46	256	2
BRK	46	288	1
BRK	46	320	0
BRK	46	352	7
TAP	47	0	0
TAP	47	0	1
TAP	47	72	1
TAP	47	72	3
TAP	47	144	2
TAP	47	144	5
TAP	47	192	3
BRK	47	192	7
BRK	47	288	2
STR	47	288	6
SI_	47	288	6	96	48	1
HLD	48	0	2	144
TAP	48	144	0
HLD	48	192	7	144
BRK	49	0	0
BRK	49	0	1
TAP	49	32	2
TAP	49	64	2
BRK	49	96	3
BRK	49	96	4
TAP	49	128	5
TAP	49	160	5
BRK	49	192	6
BRK	49	192	7
STR	49	288	0
SI_	49	288	0	96	48	4
HLD	50	0	6	144
TAP	50	144	5
BRK	50	192	6
BRK	50	224	5
BRK	50	256	4
BRK	50	288	3
BRK	50	320	2
BRK	50	352	1
TAP	51	0	6
TAP	51	0	7
TAP	51	144	0
TAP	51	192	1
TAP	51	192	3
TAP	51	264	2
TAP	51	264	5
TAP	51	336	3
TAP	51	336	7
HLD	52	0	7	144
TAP	52	144	5
HLD	52	192	3	144
BRK	53	0	4
BRK	53	0	5
TAP	53	32	6
TAP	53	64	6
BRK	53	96	0
BRK	53	96	7
TAP	53	128	1
TAP	53	160	1
BRK	53	192	0
BRK	53	192	7
TAP	54	0	0
STR	54	0	3
SI_	54	0	3	96	48	6
TAP	54	168	7
TAP	54	216	5
TAP	54	240	5
HLD	54	288	3	96
STR	55	0	2
SI_	55	0	2	96	48	5
TAP	55	168	6
TAP	55	216	0
TAP	55	240	0
TAP	55	288	1
TAP	55	288	5
TAP	55	336	3
STR	56	0	5
SI_	56	0	5	96	48	2
TAP	56	168	1
TAP	56	216	7
TAP	56	240	7
HLD	56	288	6	96
STR	57	0	4
SI_	57	0	4	96	48	0
TAP	57	168	1
TAP	57	216	3
TAP	57	240	3
TAP	57	288	4
TAP	57	288	5
BRK	57	336	6
BRK	57	336	7
STR	58	0	2
SI_	58	0	2	96	48	7
TAP	58	168	6
TAP	58	216	0
TAP	58	240	0
HLD	58	288	1	96
STR	59	0	6
SI_	59	0	6	96	48	3
TAP	59	168	2
TAP	59	216	0
TAP	59	240	0
TAP	59	288	1
TAP	59	288	5
TAP	59	336	3
STR	60	0	3
SI_	60	0	3	96	48	7
TAP	60	168	5
TAP	60	216	3
TAP	60	240	3
HLD	60	288	1	96
HLD	61	0	3	72
TAP	61	72	5
HLD	61	144	6	144
HLD	61	144	7	144
TAP	62	0	6
STR	62	0	7
SCR	62	0	7	96	48	2
TAP	62	48	5
HLD	62	96	6	72
HLD	62	168	3	72
TAP	62	240	0
STR	62	288	1
SCL	62	288	1	96	48	6
TAP	62	288	5
TAP	62	360	3
HLD	63	48	1	72
HLD	63	120	7	72
HLD	63	192	3	72
HLD	63	264	5	72
TAP	63	336	1
TAP	64	0	0
STR	64	0	2
SCR	64	0	2	96	48	5
TAP	64	48	1
TAP	64	96	2
HLD	64	168	7	72
HLD	64	240	5	72
TAP	64	312	3
TAP	65	0	3
TAP	65	0	7
TAP	65	32	0
TAP	65	32	4
TAP	65	64	1
TAP	65	64	5
STR	65	96	2
SCR	65	96	2	96	24	5
STR	65	96	6
SCR	65	96	6	96	24	1
BRK	65	192	2
BRK	65	192	6
BRK	65	256	0
BRK	65	256	4
BRK	65	320	1
BRK	65	320	5
TAP	66	0	3
STR	66	0	7
SI_	66	0	7	96	48	3
TAP	66	48	5
HLD	66	96	1	72
HLD	66	168	6	72
TAP	66	240	5
STR	66	288	0
SI_	66	288	0	96	48	4
TAP	66	288	4
TAP	66	360	2
HLD	67	48	5	72
HLD	67	120	1	72
HLD	67	192	7	72
HLD	67	264	3	72
TAP	67	336	6
STR	68	0	1
SI_	68	0	1	96	48	5
TAP	68	0	5
TAP	68	48	4
TAP	68	96	3
HLD	68	168	6	72
HLD	68	240	3	72
TAP	68	312	0
HLD	69	0	2	72
HLD	69	72	4	72
HLD	69	144	6	192
STR	70	0	7
SI_	70	0	7	96	48	3
BRK	70	32	6
BRK	70	64	5
STR	70	96	4
SI_	70	96	4	96	48	0
BRK	70	128	3
BRK	70	160	2
STR	70	192	1
SI_	70	192	1	96	48	5
BRK	70	224	0
BRK	70	256	7
STR	70	288	6
SI_	70	288	6	96	48	2

T_REC_TAP	370
T_REC_BRK	49
T_REC_XTP	0
T_REC_HLD	81
T_REC_XHO	0
T_REC_STR	43
T_REC_BST	0
T_REC_XST	0
T_REC_TTP	0
T_REC_THO	0
T_REC_SLD	43
T_REC_ALL	586
T_NUM_TAP	413
T_NUM_BRK	49
T_NUM_HLD	81
T_NUM_SLD	43
T_NUM_ALL	586
T_JUDGE_TAP	462
T_JUDGE_HLD	187
T_JUDGE_SLD	43
T_JUDGE_ALL	692
TTM_EACHPAIRS	81
TTM_SCR_TAP	206500
TTM_SCR_BRK	127400
TTM_SCR_HLD	81000
TTM_SCR_SLD	64500
TTM_SCR_ALL	479400
TTM_SCR_S	460300
TTM_SCR_SS	474500
TTM_RAT_ACV	10103

