VERSION	0.00.00	1.03.00
FES_MODE	0
BPM_DEF	140.000	140.000	140.000	140.000
MET_DEF	4	4
RESOLUTION	384
CLK_DEF	384
COMPATIBLE_CODE	MA2

BPM	0	0	140.000
MET	0	0	4	4

TAP	3	0	1
TAP	3	72	2
TAP	3	144	3
TAP	3	216	4
TAP	3	288	5
TAP	4	0	6
TAP	4	72	5
TAP	4	144	4
TAP	4	216	3
TAP	4	288	2
TAP	5	0	1
TAP	5	72	2
TAP	5	144	3
TAP	5	216	4
TAP	5	288	5
TAP	5	288	6
TAP	6	0	6
TAP	6	72	5
TAP	6	144	4
TAP	6	216	3
TAP	6	288	1
TAP	6	288	2
TAP	7	0	1
TAP	7	72	2
TAP	7	144	3
TAP	7	216	4
TAP	7	288	5
TAP	7	336	5
TAP	8	0	6
TAP	8	72	5
TAP	8	144	4
TAP	8	216	3
TAP	8	288	2
TAP	8	336	2
TAP	9	0	1
TAP	9	72	2
TAP	9	144	3
TAP	9	216	4
TAP	9	288	5
TAP	9	336	6
TAP	9	336	7
TAP	10	0	6
TAP	10	72	5
TAP	10	144	4
TAP	10	216	3
TAP	10	288	2
TAP	10	336	0
TAP	10	336	1
STR	11	192	7
SI_	11	192	7	96	24	3
HLD	12	0	2	96
HLD	12	96	3	72
TAP	12	168	2
TAP	12	216	2
TAP	12	288	4
TAP	12	288	5
HLD	13	0	4	96
HLD	13	96	5	72
TAP	13	168	4
TAP	13	216	4
TAP	13	288	2
TAP	13	288	3
HLD	14	0	1	96
HLD	14	96	4	72
TAP	14	168	6
TAP	14	216	6
TAP	14	288	6
TAP	14	288	7
HLD	15	0	6	96
HLD	15	96	3	72
TAP	15	168	1
TAP	15	216	1
TAP	15	288	0
TAP	15	288	1
HLD	16	0	0	96
HLD	16	96	1	72
TAP	16	168	2
TAP	16	216	2
TAP	16	288	1
TAP	16	288	3
HLD	17	0	7	96
HLD	17	96	6	72
TAP	17	168	5
TAP	17	216	5
TAP	17	288	4
TAP	17	288	6
HLD	18	0	3	96
HLD	18	96	5	72
TAP	18	168	6
TAP	18	216	6
TAP	18	288	2
TAP	18	288	4
HLD	19	0	1	72
HLD	19	72	7	72
HLD	19	144	5	240
TAP	20	0	7
TAP	20	48	6
TAP	20	96	5
TAP	20	120	4
TAP	20	120	5
TAP	20	168	4
TAP	20	168	5
TAP	20	216	4
TAP	20	216	5
TAP	20	264	3
TAP	20	288	3
TAP	21	0	0
TAP	21	48	1
TAP	21	96	2
TAP	21	120	2
TAP	21	120	3
TAP	21	168	2
TAP	21	168	3
TAP	21	216	2
TAP	21	216	3
TAP	21	264	4
TAP	21	288	4
TAP	22	0	6
TAP	22	48	7
TAP	22	96	0
TAP	22	120	0
TAP	22	120	1
TAP	22	168	0
TAP	22	168	1
TAP	22	216	0
TAP	22	216	1
TAP	22	264	2
TAP	22	288	2
TAP	23	0	7
TAP	23	32	7
TAP	23	64	7
HLD	23	96	7	96
STR	23	192	0
SI_	23	192	0	96	48	4
TAP	24	0	5
TAP	24	48	4
TAP	24	96	3
TAP	24	120	2
TAP	24	120	3
TAP	24	168	1
TAP	24	168	2
TAP	24	216	2
TAP	24	216	3
TAP	24	264	4
TAP	24	288	4
TAP	25	0	1
TAP	25	48	0
TAP	25	96	7
TAP	25	120	6
TAP	25	120	7
TAP	25	168	5
TAP	25	168	6
TAP	25	216	6
TAP	25	216	7
TAP	25	264	6
TAP	25	288	6
TAP	26	0	7
TAP	26	48	0
TAP	26	96	5
TAP	26	120	4
TAP	26	120	5
TAP	26	168	3
TAP	26	168	4
TAP	26	216	4
TAP	26	216	5
TAP	26	264	4
TAP	26	288	4
HLD	27	0	6	72
HLD	27	72	0	72
HLD	27	144	2	240
TAP	28	0	0
TAP	28	32	0
TAP	28	64	0
TAP	28	96	6
TAP	28	128	6
TAP	28	160	6
TAP	28	192	4
TAP	28	224	4
TAP	28	256	4
BRK	28	288	2
HLD	29	0	7	72
HLD	29	72	1	72
HLD	29	144	3	528
STR	29	288	0
SI_	29	288	0	96	48	5
STR	30	96	5
SI_	30	96	5	96	48	2
TAP	30	288	2
HLD	31	0	0	72
HLD	31	72	6	72
HLD	31	144	4	528
STR	31	288	7
SI_	31	288	7	96	48	2
STR	32	96	2
SI_	32	96	2	96	48	5
TAP	32	288	5
TAP	32	336	5
HLD	33	0	3	72
HLD	33	72	1	72
HLD	33	144	7	528
STR	33	288	6
SI_	33	288	6	96	48	1
STR	34	96	1
SI_	34	96	1	96	48	4
TAP	34	288	4
HLD	35	0	4	72
HLD	35	72	6	72
HLD	35	144	0	528
STR	35	288	1
SI_	35	288	1	96	48	6
STR	36	96	6
SI_	36	96	6	96	48	3
TAP	36	288	3
TAP	36	336	3
HLD	37	0	0	72
HLD	37	72	6	72
HLD	37	144	4	72
HLD	37	216	2	72
TAP	37	288	0
TAP	37	336	0
TAP	37	336	7
HLD	38	0	7	72
HLD	38	72	1	72
HLD	38	144	3	72
HLD	38	216	5	72
TAP	38	288	7
TAP	38	336	0
TAP	38	336	7
HLD	39	0	0	72
HLD	39	72	6	72
HLD	39	144	4	72
HLD	39	216	2	72
TAP	39	288	0
TAP	39	336	0
TAP	39	336	7
HLD	40	0	7	72
HLD	40	72	1	72
HLD	40	144	3	72
TAP	40	216	5
TAP	40	288	0
TAP	40	288	7
TAP	40	336	1
TAP	40	336	6
HLD	41	0	1	72
HLD	41	72	3	72
HLD	41	144	4	72
HLD	41	216	6	72
TAP	41	288	7
TAP	41	336	5
TAP	41	336	7
HLD	42	0	6	72
HLD	42	72	4	72
HLD	42	144	3	72
HLD	42	216	1	72
TAP	42	288	0
TAP	42	336	0
TAP	42	336	2
HLD	43	0	2	72
HLD	43	72	0	72
HLD	43	144	7	72
HLD	43	216	5	72
TAP	43	288	6
TAP	43	336	4
TAP	43	336	6
HLD	44	0	5	72
HLD	44	72	7	72
HLD	44	144	0	72
HLD	44	216	2	72
TAP	44	288	1
TAP	44	336	1
TAP	44	336	3
TAP	45	0	7
TAP	45	32	0
TAP	45	64	1
TAP	45	96	2
TAP	45	128	3
TAP	45	160	4
TAP	45	192	5
TAP	45	224	6
TAP	45	256	7
BRK	45	288	0
HLD	46	0	2	96
HLD	46	0	3	96
TAP	46	144	1
TAP	46	144	2
TAP	46	192	5
TAP	46	224	5
TAP	46	256	5
HLD	46	288	0	96
HLD	47	0	7	72
HLD	47	72	6	72
TAP	47	144	5
STR	47	192	4
SI_	47	192	4	96	48	0
HLD	48	0	5	96
HLD	48	0	6	96
TAP	48	144	5
TAP	48	144	6
HLD	48	192	0	48
HLD	48	240	2	48
HLD	48	288	4	48
TAP	48	336	6
TAP	49	0	4
TAP	49	0	5
TAP	49	32	0
TAP	49	64	0
TAP	49	96	2
TAP	49	96	3
TAP	49	128	7
TAP	49	160	7
STR	49	192	4
SI_	49	192	4	96	48	1
STR	49	192	5
SI_	49	192	5	96	48	0
HLD	50	0	1	96
HLD	50	0	2	96
TAP	50	144	1
TAP	50	144	2
STR	50	192	7
SI_	50	192	7	96	48	4
TAP	50	224	7
TAP	50	256	7
STR	51	0	3
SCR	51	0	3	96	48	6
STR	51	0	7
SCR	51	0	7	96	48	2
BRK	51	192	1
BRK	51	192	5
BRK	51	256	0
BRK	51	256	4
BRK	51	320	3
BRK	51	320	7
HLD	52	0	5	96
HLD	52	0	6	96
TAP	52	144	5
TAP	52	144	6
HLD	52	192	1	48
HLD	52	192	7	48
HLD	52	288	3	48
HLD	52	288	5	48
TAP	53	0	4
TAP	53	32	3
TAP	53	64	5
TAP	53	96	2
TAP	53	128	6
TAP	53	160	1
STR	53	192	7
SI_	53	192	7	96	48	3
HLD	54	0	2	96
HLD	54	96	3	72
TAP	54	168	2
TAP	54	216	2
TAP	54	264	3
TAP	54	288	4
TAP	54	288	5
HLD	55	0	4	96
HLD	55	96	5	72
TAP	55	168	4
TAP	55	216	4
TAP	55	264	3
TAP	55	288	1
TAP	55	288	2
HLD	56	0	1	96
HLD	56	96	4	72
TAP	56	168	6
TAP	56	216	6
TAP	56	264	7
TAP	56	288	0
TAP	56	288	1
HLD	57	0	6	96
HLD	57	96	3	72
TAP	57	168	1
TAP	57	216	1
TAP	57	264	0
TAP	57	288	6
TAP	57	288	7
HLD	58	0	0	96
HLD	58	96	1	72
TAP	58	168	2
TAP	58	216	2
TAP	58	264	2
TAP	58	288	1
TAP	58	288	3
HLD	59	0	7	96
HLD	59	96	6	72
TAP	59	168	5
TAP	59	216	5
TAP	59	264	5
TAP	59	288	4
TAP	59	288	6
HLD	60	0	3	96
HLD	60	96	5	72
TAP	60	168	3
TAP	60	216	3
TAP	60	264	3
TAP	60	288	2
TAP	60	288	4
HLD	61	0	1	72
HLD	61	72	7	72
HLD	61	144	5	240
TAP	62	0	7
TAP	62	48	6
TAP	62	96	5
TAP	62	120	4
TAP	62	120	5
TAP	62	168	3
TAP	62	168	4
TAP	62	216	4
TAP	62	216	5
TAP	62	264	2
HLD	62	288	2	96
TAP	63	0	0
TAP	63	48	1
TAP	63	96	2
TAP	63	120	2
TAP	63	120	3
TAP	63	168	3
TAP	63	168	4
TAP	63	216	2
TAP	63	216	3
TAP	63	264	4
HLD	63	288	4	96
TAP	64	0	6
TAP	64	48	7
TAP	64	96	0
TAP	64	120	0
TAP	64	120	2
TAP	64	168	1
TAP	64	168	3
TAP	64	216	0
TAP	64	216	2
TAP	64	264	1
HLD	64	288	1	96
TAP	65	0	7
TAP	65	32	7
TAP	65	64	7
HLD	65	96	0	96
BRK	65	192	2
BRK	65	256	2
BRK	65	256	4
BRK	65	320	4
BRK	65	320	6
TAP	66	0	5
TAP	66	48	4
TAP	66	96	4
TAP	66	120	2
TAP	66	120	4
TAP	66	168	1
TAP	66	168	3
TAP	66	216	2
TAP	66	216	4
TAP	66	264	3
HLD	66	288	3	96
TAP	67	0	0
TAP	67	48	7
TAP	67	96	6
TAP	67	120	3
TAP	67	120	6
TAP	67	168	2
TAP	67	168	5
TAP	67	216	3
TAP	67	216	6
TAP	67	264	5
HLD	67	288	5	96
TAP	68	0	7
TAP	68	48	0
TAP	68	96	5
TAP	68	120	1
TAP	68	120	5
TAP	68	168	0
TAP	68	168	4
TAP	68	216	1
TAP	68	216	5
TAP	68	264	7
HLD	68	288	7	96
HLD	69	0	1	72
HLD	69	72	3	72
HLD	69	144	5	240
TAP	70	0	7
TAP	70	32	7
TAP	70	64	7
TAP	70	96	1
TAP	70	128	1
TAP	70	160	1
STR	70	192	3
SI_	70	192	3	96	48	7
TAP	70	224	3
TAP	70	256	3
STR	70	288	0
SI_	70	288	0	96	24	4

T_REC_TAP	330
T_REC_BRK	13
T_REC_XTP	0
T_REC_HLD	109
T_REC_XHO	0
T_REC_STR	19
T_REC_BST	0
T_REC_XST	0
T_REC_TTP	0
T_REC_THO	0
T_REC_SLD	19
T_REC_ALL	490
T_NUM_TAP	349
T_NUM_BRK	13
T_NUM_HLD	109
T_NUM_SLD	19
T_NUM_ALL	490
T_JUDGE_TAP	362
T_JUDGE_HLD	259
T_JUDGE_SLD	19
T_JUDGE_ALL	640
TTM_EACHPAIRS	82
TTM_SCR_TAP	174500
TTM_SCR_BRK	33800
TTM_SCR_HLD	109000
TTM_SCR_SLD	28500
TTM_SCR_ALL	345800
TTM_SCR_S	334200
TTM_SCR_SS	344500
TTM_RAT_ACV	10037

