VERSION	0.00.00	1.03.00
FES_MODE	0
BPM_DEF	140.000	140.000	140.000	140.000
MET_DEF	4	4
RESOLUTION	384
CLK_DEF	384
COMPATIBLE_CODE	MA2

BPM	0	0	140.000
MET	0	0	4	4

TAP	3	0	2
TAP	3	72	2
TAP	3	144	3
TAP	3	216	3
TAP	3	288	3
TAP	4	0	4
TAP	4	72	4
TAP	4	144	5
TAP	4	216	5
TAP	4	288	6
TAP	4	336	6
TAP	5	0	5
TAP	5	72	5
TAP	5	144	4
TAP	5	216	4
TAP	5	288	4
TAP	6	0	3
TAP	6	72	3
TAP	6	144	2
TAP	6	216	2
TAP	6	288	1
TAP	6	336	1
TAP	7	0	3
TAP	7	72	4
TAP	7	144	2
TAP	7	216	5
TAP	7	288	1
TAP	7	336	6
TAP	8	0	0
TAP	8	72	7
TAP	8	144	1
TAP	8	216	6
TAP	8	288	2
TAP	8	336	5
TAP	9	0	3
TAP	9	72	6
TAP	9	144	2
TAP	9	216	7
TAP	9	288	1
TAP	9	336	0
TAP	10	0	2
TAP	10	72	7
TAP	10	144	3
TAP	10	216	6
TAP	10	288	4
TAP	10	336	5
BRK	11	288	0
BRK	11	288	7
TAP	12	0	0
TAP	12	96	3
TAP	12	96	6
TAP	12	192	1
TAP	12	288	4
TAP	12	288	7
TAP	13	0	2
TAP	13	96	0
TAP	13	96	5
TAP	13	192	3
TAP	13	288	1
TAP	13	288	6
TAP	14	0	7
TAP	14	96	1
TAP	14	96	4
TAP	14	192	6
TAP	14	288	0
TAP	14	288	3
TAP	15	0	5
TAP	15	96	2
TAP	15	96	7
TAP	15	192	4
TAP	15	288	1
TAP	15	288	6
TAP	16	0	0
TAP	16	0	3
TAP	16	96	2
TAP	16	96	5
TAP	16	192	4
TAP	16	288	1
TAP	16	288	6
TAP	17	0	4
TAP	17	0	7
TAP	17	96	2
TAP	17	96	5
TAP	17	192	3
TAP	17	288	1
TAP	17	288	6
TAP	18	0	0
TAP	18	0	2
TAP	18	96	1
TAP	18	96	6
TAP	18	192	5
TAP	18	192	7
TAP	18	288	1
TAP	18	288	6
HLD	19	0	2	72
HLD	19	72	6	72
HLD	19	144	0	144
TAP	20	0	0
TAP	20	96	3
TAP	20	96	5
TAP	20	192	1
TAP	20	288	4
TAP	20	288	6
TAP	21	0	7
TAP	21	96	2
TAP	21	96	4
TAP	21	192	6
TAP	21	288	1
TAP	21	288	3
TAP	22	0	0
TAP	22	96	3
TAP	22	96	5
TAP	22	192	7
TAP	22	288	2
TAP	22	288	4
TAP	23	0	5
TAP	23	0	6
HLD	23	96	2	144
HLD	23	96	3	144
BRK	23	288	2
BRK	23	288	3
TAP	24	0	7
TAP	24	96	1
TAP	24	96	5
TAP	24	192	3
TAP	24	288	1
TAP	24	288	5
TAP	25	0	0
TAP	25	96	2
TAP	25	96	6
TAP	25	192	4
TAP	25	288	2
TAP	25	288	6
TAP	26	0	3
TAP	26	96	1
TAP	26	96	5
TAP	26	192	4
TAP	26	288	2
TAP	26	288	6
HLD	27	0	5	72
HLD	27	72	1	72
HLD	27	144	7	528
TAP	28	288	0
TAP	29	0	2
TAP	29	0	3
TAP	29	72	3
TAP	29	72	4
TAP	29	144	4
HLD	29	144	5	240
TAP	29	288	4
HLD	30	0	4	192
TAP	30	96	5
HLD	30	192	5	96
TAP	30	288	4
TAP	31	0	6
TAP	31	0	7
TAP	31	72	0
TAP	31	72	7
HLD	31	144	0	240
TAP	31	144	1
TAP	31	288	1
HLD	32	0	1	192
TAP	32	96	0
HLD	32	192	0	96
TAP	32	288	1
TAP	33	0	4
TAP	33	0	5
TAP	33	72	3
TAP	33	72	4
HLD	33	144	2	240
TAP	33	144	3
TAP	33	288	3
HLD	34	0	3	192
TAP	34	96	2
HLD	34	192	2	96
TAP	34	288	3
TAP	35	0	0
TAP	35	0	1
TAP	35	72	0
TAP	35	72	7
TAP	35	144	6
HLD	35	144	7	240
TAP	35	288	6
HLD	36	0	6	192
TAP	36	96	7
HLD	36	192	7	96
TAP	36	288	6
TAP	37	0	1
TAP	37	72	2
TAP	37	144	3
TAP	37	216	4
TAP	37	288	2
TAP	37	336	3
TAP	38	0	1
TAP	38	72	2
TAP	38	144	3
TAP	38	216	4
TAP	38	288	2
TAP	38	336	3
TAP	39	0	5
TAP	39	72	6
TAP	39	144	7
TAP	39	216	0
TAP	39	288	6
TAP	39	336	7
TAP	40	0	5
TAP	40	72	6
TAP	40	144	7
TAP	40	216	0
TAP	40	288	6
TAP	40	336	7
TAP	41	0	6
TAP	41	72	5
TAP	41	144	4
TAP	41	216	3
TAP	41	288	5
TAP	41	336	4
TAP	42	0	6
TAP	42	72	5
TAP	42	144	4
TAP	42	216	3
TAP	42	288	5
TAP	42	336	4
TAP	43	0	2
TAP	43	72	1
TAP	43	144	0
TAP	43	216	7
TAP	43	288	1
TAP	43	336	0
TAP	44	0	2
TAP	44	72	1
TAP	44	144	0
TAP	44	216	7
TAP	44	288	1
TAP	44	336	0
STR	45	0	7
SI_	45	0	7	96	96	4
TAP	45	288	3
TAP	45	288	4
HLD	46	0	3	96
HLD	46	0	4	96
TAP	46	192	2
TAP	46	288	2
TAP	46	288	3
TAP	47	0	6
TAP	47	72	5
TAP	47	144	4
TAP	47	192	0
TAP	47	192	7
TAP	47	288	0
TAP	47	288	7
HLD	48	0	3	96
HLD	48	0	4	96
TAP	48	192	5
TAP	48	288	4
TAP	48	288	5
TAP	49	0	0
TAP	49	0	7
STR	49	96	0
SI_	49	96	0	96	96	3
STR	49	96	7
SI_	49	96	7	96	96	4
HLD	50	0	3	96
HLD	50	0	4	96
TAP	50	192	2
TAP	50	192	4
TAP	50	288	3
TAP	50	288	5
TAP	51	0	0
TAP	51	96	0
TAP	51	192	7
TAP	51	256	7
TAP	51	320	7
HLD	52	0	3	96
HLD	52	0	4	96
TAP	52	192	1
TAP	52	192	5
STR	52	288	1
SCR	52	288	1	96	192	4
STR	52	288	5
SCR	52	288	5	96	192	0
TAP	54	0	5
TAP	54	96	0
TAP	54	96	3
TAP	54	192	1
TAP	54	288	4
TAP	54	288	7
TAP	55	0	6
TAP	55	96	0
TAP	55	96	3
TAP	55	192	2
TAP	55	288	4
TAP	55	288	7
TAP	56	0	5
TAP	56	96	0
TAP	56	96	3
TAP	56	192	1
TAP	56	288	4
TAP	56	288	7
TAP	57	0	6
TAP	57	96	0
TAP	57	96	3
TAP	57	192	2
TAP	57	288	4
TAP	57	288	7
TAP	58	0	1
TAP	58	96	4
TAP	58	96	7
TAP	58	192	5
TAP	58	288	0
TAP	58	288	3
TAP	59	0	2
TAP	59	96	4
TAP	59	96	7
TAP	59	192	6
TAP	59	288	0
TAP	59	288	3
TAP	60	0	1
TAP	60	96	4
TAP	60	96	7
TAP	60	192	5
TAP	60	288	0
TAP	60	288	3
HLD	61	0	2	72
HLD	61	72	6	72
HLD	61	144	0	144
TAP	62	0	7
TAP	62	96	0
TAP	62	96	4
TAP	62	192	2
TAP	62	288	1
TAP	62	288	5
TAP	63	0	6
TAP	63	96	0
TAP	63	96	4
TAP	63	192	3
TAP	63	288	1
TAP	63	288	5
TAP	64	0	7
TAP	64	96	0
TAP	64	96	4
TAP	64	192	2
STR	64	288	1
SI_	64	288	1	96	96	5
TAP	64	288	5
BRK	65	192	0
BRK	65	192	7
BRK	65	256	0
BRK	65	256	7
BRK	65	320	0
BRK	65	320	7
TAP	66	0	0
TAP	66	96	3
TAP	66	96	7
TAP	66	192	5
TAP	66	288	2
TAP	66	288	6
TAP	67	0	1
TAP	67	96	3
TAP	67	96	7
TAP	67	192	4
TAP	67	288	2
TAP	67	288	6
TAP	68	0	0
TAP	68	96	3
TAP	68	96	7
TAP	68	192	5
TAP	68	288	2
TAP	68	288	6
HLD	69	0	5	72
HLD	69	72	1	72
HLD	69	144	7	528
STR	70	288	0
SI_	70	288	0	96	48	4

T_REC_TAP	316
T_REC_BRK	10
T_REC_XTP	0
T_REC_HLD	34
T_REC_XHO	0
T_REC_STR	7
T_REC_BST	0
T_REC_XST	0
T_REC_TTP	0
T_REC_THO	0
T_REC_SLD	7
T_REC_ALL	374
T_NUM_TAP	323
T_NUM_BRK	10
T_NUM_HLD	34
T_NUM_SLD	7
T_NUM_ALL	374
T_JUDGE_TAP	333
T_JUDGE_HLD	110
T_JUDGE_SLD	7
T_JUDGE_ALL	450
TTM_EACHPAIRS	90
TTM_SCR_TAP	161500
TTM_SCR_BRK	26000
TTM_SCR_HLD	34000
TTM_SCR_SLD	10500
TTM_SCR_ALL	232000
TTM_SCR_S	224100
TTM_SCR_SS	231000
TTM_RAT_ACV	10043

