VERSION	0.00.00	1.03.00
FES_MODE	0
BPM_DEF	140.000	140.000	140.000	140.000
MET_DEF	4	4
RESOLUTION	384
CLK_DEF	384
COMPATIBLE_CODE	MA2

BPM	0	0	140.000
MET	0	0	4	4

TAP	3	0	0
TAP	3	192	1
TAP	4	0	2
TAP	4	192	3
TAP	5	0	4
TAP	5	192	5
TAP	6	0	6
TAP	6	192	7
TAP	7	0	7
TAP	7	192	6
TAP	8	0	5
TAP	8	192	4
TAP	9	0	3
TAP	9	192	2
TAP	10	0	1
TAP	10	192	0
BRK	11	0	0
BRK	11	0	7
HLD	12	0	1	144
STR	13	0	0
SI_	13	0	0	96	96	3
HLD	14	0	6	144
STR	15	0	7
SI_	15	0	7	96	96	4
HLD	16	0	1	144
STR	17	0	1
SI_	17	0	1	96	96	5
HLD	18	0	6	144
STR	19	0	6
SI_	19	0	6	96	96	2
HLD	20	0	1	144
TAP	21	0	4
TAP	21	192	5
TAP	21	288	5
HLD	22	0	6	144
TAP	23	0	3
TAP	23	192	2
TAP	23	288	2
HLD	24	0	1	144
TAP	25	0	4
TAP	25	192	5
TAP	25	288	5
HLD	26	0	6	144
STR	27	0	0
SI_	27	0	0	96	96	3
STR	28	0	5
SI_	28	0	5	96	96	2
TAP	29	0	0
TAP	29	72	0
HLD	29	144	0	528
TAP	31	0	7
TAP	31	72	7
HLD	31	144	7	528
TAP	33	0	1
TAP	33	72	1
HLD	33	144	1	528
TAP	35	0	6
TAP	35	72	6
HLD	35	144	6	528
TAP	37	0	0
TAP	37	192	1
TAP	38	0	2
TAP	38	192	3
TAP	39	0	4
TAP	39	192	5
TAP	40	0	6
TAP	40	192	7
TAP	41	0	0
TAP	41	96	0
TAP	41	192	1
TAP	41	288	1
TAP	42	0	2
TAP	42	96	2
TAP	42	192	3
TAP	42	288	3
TAP	43	0	4
TAP	43	96	5
TAP	43	192	6
TAP	43	288	7
TAP	44	0	0
TAP	44	96	1
TAP	44	192	2
TAP	44	288	3
BRK	45	0	3
BRK	45	0	4
TAP	46	0	3
TAP	46	144	3
TAP	46	192	3
HLD	47	0	6	192
TAP	48	0	4
TAP	48	144	4
TAP	48	192	4
TAP	49	0	1
TAP	49	96	1
BRK	49	192	0
BRK	49	192	1
TAP	50	0	3
TAP	50	144	3
TAP	50	192	3
HLD	51	0	6	192
TAP	52	0	4
TAP	52	144	4
TAP	52	192	4
STR	53	0	0
SI_	53	0	0	96	96	3
TAP	54	0	4
TAP	54	96	2
TAP	54	288	2
TAP	55	96	2
TAP	55	288	2
TAP	56	0	3
TAP	56	96	5
TAP	56	288	5
TAP	57	96	5
TAP	57	288	5
TAP	58	0	6
TAP	58	96	0
TAP	58	288	0
TAP	59	96	0
TAP	59	288	0
TAP	60	0	1
TAP	60	96	7
TAP	60	288	7
STR	61	0	7
SI_	61	0	7	96	96	4
TAP	62	96	1
TAP	62	288	1
TAP	63	96	4
TAP	63	288	4
TAP	64	96	7
TAP	64	288	7
TAP	65	0	0
TAP	65	0	7
HLD	65	192	0	192
TAP	66	96	0
TAP	66	288	1
TAP	67	96	3
TAP	67	288	4
TAP	68	96	6
TAP	68	288	7
STR	69	0	7
SI_	69	0	7	96	96	2
STR	70	0	0
SI_	70	0	0	96	96	5
TAP	71	0	3
TAP	71	0	4

T_REC_TAP	105
T_REC_BRK	6
T_REC_XTP	0
T_REC_HLD	15
T_REC_XHO	0
T_REC_STR	10
T_REC_BST	0
T_REC_XST	0
T_REC_TTP	0
T_REC_THO	0
T_REC_SLD	10
T_REC_ALL	146
T_NUM_TAP	115
T_NUM_BRK	6
T_NUM_HLD	15
T_NUM_SLD	10
T_NUM_ALL	146
T_JUDGE_TAP	121
T_JUDGE_HLD	80
T_JUDGE_SLD	10
T_JUDGE_ALL	211
TTM_EACHPAIRS	5
TTM_SCR_TAP	57500
TTM_SCR_BRK	15600
TTM_SCR_HLD	15000
TTM_SCR_SLD	15000
TTM_SCR_ALL	103100
TTM_SCR_S	99450
TTM_SCR_SS	102500
TTM_RAT_ACV	10058

