VERSION	0.00.00	1.03.00
FES_MODE	0
BPM_DEF	147.000	147.000	147.000	147.000
MET_DEF	4	4
RESOLUTION	384
CLK_DEF	384
COMPATIBLE_CODE	MA2

BPM	0	0	147.000
MET	0	0	4	4

HLD	1	0	2	96
TAP	1	48	7
TAP	1	72	6
HLD	1	96	5	96
TAP	1	144	0
TAP	1	168	1
HLD	1	192	2	96
TAP	1	240	1
TAP	1	264	0
TAP	1	288	7
TAP	1	312	6
TAP	1	336	5
STR	1	360	4
SCR	1	360	4	96	168	3
TAP	2	96	1
TAP	2	120	2
TAP	2	144	3
TAP	2	168	4
TAP	3	0	0
TAP	3	0	4
TAP	3	96	2
TAP	3	120	0
TAP	3	144	1
TAP	3	168	7
TAP	3	192	0
TAP	3	216	6
TAP	3	240	7
TAP	3	264	7
TAP	3	288	5
TAP	3	312	7
TAP	3	336	6
TAP	3	360	0
TAP	4	0	7
TAP	4	24	1
TAP	4	48	0
TAP	4	72	0
TAP	4	96	1
TAP	4	120	3
TAP	4	144	2
TAP	4	168	4
TAP	4	192	3
TAP	4	216	5
TAP	4	240	4
TAP	4	264	4
TAP	4	288	5
TAP	4	312	3
TAP	4	336	4
TAP	4	360	2
TAP	5	0	4
TAP	5	24	4
TAP	5	48	3
TAP	5	72	3
TAP	5	96	5
TAP	5	120	5
TAP	5	144	2
TAP	5	168	2
TAP	5	192	6
TAP	5	216	6
TAP	5	240	1
TAP	5	264	1
STR	5	288	0
SCL	5	288	0	96	192	0
STR	5	312	7
SCL	5	312	7	96	192	7
STR	5	336	6
SCL	5	336	6	96	192	6
STR	5	360	5
SCL	5	360	5	96	192	5
STR	6	0	4
SCL	6	0	4	96	192	4
STR	7	24	1
SI_	7	24	1	96	24	6
STR	7	120	5
SI_	7	120	5	96	24	1
STR	7	192	2
SI_	7	192	2	96	24	5
HLD	8	0	2	96
TAP	8	48	7
TAP	8	72	6
HLD	8	96	5	96
TAP	8	144	0
TAP	8	168	1
HLD	8	192	2	96
TAP	8	240	7
TAP	8	264	6
HLD	8	288	5	48
TAP	8	336	0
TAP	9	0	6
TAP	9	24	6
TAP	9	48	0
TAP	9	72	5
TAP	9	96	1
TAP	9	120	1
TAP	9	144	7
TAP	9	168	2
TAP	9	192	6
TAP	9	216	6
TAP	9	240	1
TAP	9	264	1
STR	9	288	7
SCR	9	288	7	96	192	7
STR	9	312	0
SCR	9	312	0	96	192	0
STR	9	336	1
SCR	9	336	1	96	192	1
STR	9	360	2
SCR	9	360	2	96	192	2
STR	10	0	3
SCR	10	0	3	96	192	3
STR	11	24	1
SI_	11	24	1	96	24	6
STR	11	120	5
SI_	11	120	5	96	24	1
STR	11	192	2
SI_	11	192	2	96	24	5
HLD	12	0	4	96
TAP	12	48	1
TAP	12	72	2
HLD	12	96	3	96
TAP	12	144	7
TAP	12	168	6
HLD	12	192	5	96
TAP	12	240	0
TAP	12	264	1
HLD	12	288	2	48
TAP	12	336	6
TAP	13	0	0
TAP	13	24	7
TAP	13	48	0
TAP	13	72	7
TAP	13	96	0
TAP	13	120	1
TAP	13	120	5
TAP	13	168	1
TAP	13	168	5
TAP	13	216	0
TAP	13	216	4
TAP	13	264	3
TAP	13	264	7
STR	13	288	6
SSR	13	288	6	96	72	2
TAP	13	312	5
TAP	13	336	4
TAP	13	360	3
TAP	14	0	2
TAP	14	120	1
TAP	14	144	0
TAP	14	168	7
STR	14	192	6
SSR	14	192	6	96	72	2
TAP	14	216	5
TAP	14	240	4
TAP	14	264	3
TAP	14	288	2
TAP	15	24	0
TAP	15	48	1
TAP	15	72	2
TAP	15	96	4
TAP	15	120	5
TAP	15	144	6
TAP	15	168	7
TAP	15	192	0
STR	15	216	1
SI_	15	216	1	96	24	6
TAP	15	240	2
TAP	15	264	3
STR	15	312	5
SI_	15	312	5	96	24	1
STR	16	24	2
SI_	16	24	2	96	24	5
STR	16	96	6
SSR	16	96	6	96	96	2
TAP	17	0	0
TAP	17	16	1
TAP	17	32	2
TAP	17	48	7
TAP	17	64	6
TAP	17	80	5
TAP	17	96	1
TAP	17	112	2
TAP	17	128	3
TAP	17	144	6
TAP	17	160	5
TAP	17	176	4
STR	17	192	3
SI_	17	192	3	96	24	7
BRK	17	264	0
STR	18	0	6
SI_	18	0	6	96	48	3
TAP	18	24	6
STR	18	96	2
SI_	18	96	2	96	48	7
TAP	18	120	2
STR	18	192	6
SUR	18	192	6	96	96	0
TAP	18	288	1
BRK	18	360	1
STR	19	96	3
SI_	19	96	3	96	48	0
TAP	19	120	3
STR	19	192	4
SI_	19	192	4	96	48	7
STR	19	264	1
SCR	19	264	1	96	48	4
TAP	20	24	6
STR	20	96	7
SSR	20	96	7	96	72	3
TAP	20	168	2
TAP	20	288	1
TAP	20	312	1
TAP	20	336	7
TAP	20	360	7
TAP	21	0	1
TAP	21	24	0
TAP	21	48	1
TAP	21	96	6
TAP	21	120	7
TAP	21	144	6
TAP	21	192	0
TAP	21	216	0
TAP	21	264	7
TAP	21	288	1
TAP	21	312	1
TAP	21	336	0
TAP	21	336	1
TAP	22	24	5
TAP	22	48	7
TAP	22	72	6
TAP	22	96	2
TAP	22	120	0
TAP	22	144	1
STR	22	168	7
SI_	22	168	7	96	48	3
TAP	22	192	0
TAP	22	264	7
STR	22	360	7
SI_	22	360	7	96	48	4
TAP	23	0	1
TAP	23	72	7
TAP	23	96	3
TAP	23	120	2
TAP	23	144	1
TAP	23	168	0
TAP	23	216	6
TAP	23	240	1
TAP	23	264	7
TAP	23	288	2
TAP	23	312	0
TAP	23	336	3
TAP	23	360	4
TAP	23	360	7
TAP	24	24	0
TAP	24	24	3
STR	24	96	1
SI_	24	96	1	96	48	6
STR	24	96	2
SI_	24	96	2	96	48	5
TAP	24	168	1
TAP	24	168	2
STR	24	312	1
SCL	24	312	1	96	48	7
STR	24	360	7
SCL	24	360	7	96	96	3
STR	25	72	3
SCL	25	72	3	96	96	7
STR	25	168	7
SCL	25	168	7	96	72	4
BRK	25	240	3
TAP	26	0	1
STR	26	120	6
SSR	26	120	6	96	48	2
TAP	26	144	2
TAP	26	168	6
STR	26	312	3
SSR	26	312	3	96	48	7
TAP	26	336	7
TAP	26	360	3
STR	27	120	6
SSR	27	120	6	96	48	2
TAP	27	144	2
TAP	27	168	6
STR	27	312	1
SSR	27	312	1	96	48	5
TAP	27	336	5
TAP	27	360	1
STR	28	120	6
SSR	28	120	6	96	48	2
TAP	28	144	2
TAP	28	168	6
TAP	28	312	1
TAP	28	336	1
STR	28	360	4
SI_	28	360	4	96	48	7
TAP	29	24	2
TAP	29	48	2
TAP	29	96	1
TAP	29	120	1
STR	29	168	3
SI_	29	168	3	96	48	0
TAP	29	216	5
TAP	29	240	5
TAP	29	288	6
TAP	29	312	6
TAP	30	0	1
STR	30	120	6
SSR	30	120	6	96	48	2
TAP	30	144	2
TAP	30	168	2
STR	30	312	3
SSR	30	312	3	96	48	7
TAP	30	336	7
TAP	30	360	7
STR	31	120	6
SSR	31	120	6	96	48	2
TAP	31	144	2
TAP	31	168	2
STR	31	312	1
SSR	31	312	1	96	48	5
TAP	31	336	5
TAP	31	360	5
STR	32	120	6
SSR	32	120	6	96	48	2
TAP	32	144	2
TAP	32	168	2
TAP	32	312	1
TAP	32	336	1
STR	32	360	4
SUL	32	360	4	96	48	7
TAP	33	24	2
TAP	33	48	2
TAP	33	96	1
TAP	33	120	1
STR	33	168	3
SUR	33	168	3	96	48	0
TAP	33	216	5
TAP	33	240	5
TAP	33	288	6
TAP	33	312	6
STR	34	0	2
SCL	34	0	2	96	48	7
STR	34	0	6
SCL	34	0	6	96	48	3
STR	34	96	2
SUR	34	96	2	96	48	7
STR	34	96	6
SUR	34	96	6	96	48	3
TAP	34	192	2
TAP	34	192	6
STR	35	0	3
SCL	35	0	3	96	48	0
STR	35	0	7
SCL	35	0	7	96	48	4
STR	35	96	3
SXL	35	96	3	96	96	6
STR	35	96	7
SXL	35	96	7	96	96	2
TAP	35	192	3
TAP	35	192	7
STR	36	0	3
SI_	36	0	3	96	48	7
STR	36	0	7
SI_	36	0	7	96	48	3
STR	36	96	3
SF_	36	96	3	96	96	7
TAP	36	96	7
TAP	36	192	3
STR	37	0	6
SSR	37	0	6	96	96	2
TAP	37	48	6
STR	37	96	2
SSR	37	96	2	96	96	6
TAP	37	144	2
BRK	37	288	4
STR	38	0	1
SCR	38	0	1	96	48	4
STR	38	0	5
SCR	38	0	5	96	48	0
STR	38	96	1
SUL	38	96	1	96	48	4
STR	38	96	5
SUL	38	96	5	96	48	0
TAP	38	192	1
TAP	38	192	5
TAP	38	288	1
TAP	38	288	5
STR	39	0	0
SCR	39	0	0	96	48	3
STR	39	0	4
SCR	39	0	4	96	48	7
STR	39	96	0
SUL	39	96	0	96	48	3
STR	39	96	4
SUL	39	96	4	96	48	7
TAP	39	192	0
TAP	39	192	4
TAP	39	288	0
TAP	39	288	4
STR	40	0	6
SI_	40	0	6	96	48	0
STR	40	48	0
SI_	40	48	0	96	48	4
STR	40	96	4
SI_	40	96	4	96	48	2
TAP	40	144	2
TAP	40	240	0
TAP	40	288	1
TAP	40	288	5
TAP	40	336	2
TAP	40	336	6
STR	41	0	7
SI_	41	0	7	96	48	1
STR	41	48	1
SI_	41	48	1	96	48	5
STR	41	96	5
SI_	41	96	5	96	48	3
BRK	41	240	0
TAP	42	0	1
TAP	42	24	7
TAP	42	48	1
TAP	42	72	7
TAP	42	96	0
TAP	42	120	6
TAP	42	144	0
TAP	42	168	6
TAP	42	192	1
TAP	42	216	0
TAP	42	240	1
TAP	42	288	6
TAP	42	312	7
TAP	42	336	6
TAP	43	0	0
TAP	43	16	1
TAP	43	32	2
TAP	43	48	3
TAP	43	96	6
TAP	43	112	5
TAP	43	128	4
TAP	43	144	3
TAP	43	192	1
TAP	43	208	0
TAP	43	224	1
TAP	43	240	0
TAP	43	256	1
TAP	43	272	0
TAP	43	288	1
TAP	43	304	0
TAP	43	320	1
TAP	43	336	0
TAP	43	352	1
TAP	43	368	0
TAP	44	0	1
TAP	44	24	2
TAP	44	24	7
TAP	44	96	7
TAP	44	120	0
TAP	44	120	6
TAP	44	192	0
TAP	44	192	7
TAP	44	216	1
TAP	44	216	6
STR	44	264	7
SCR	44	264	7	96	192	7
STR	44	288	0
SCR	44	288	0	96	192	0
STR	44	312	1
SCR	44	312	1	96	192	1
STR	44	336	2
SCR	44	336	2	96	192	2
STR	44	360	3
SCR	44	360	3	96	192	3
STR	45	0	4
SCR	45	0	4	96	192	4
STR	46	24	2
SI_	46	24	2	96	24	5
STR	46	120	5
SI_	46	120	5	96	24	1
STR	46	192	1
SI_	46	192	1	96	24	6
HLD	47	0	3	96
TAP	47	48	0
TAP	47	60	7
TAP	47	72	6
TAP	47	84	5
HLD	47	96	4	96
TAP	47	144	7
TAP	47	156	0
TAP	47	168	1
TAP	47	180	2
HLD	47	192	3	96
TAP	47	240	0
TAP	47	252	7
TAP	47	264	6
TAP	47	276	5
HLD	47	288	4	48
TAP	47	336	7
TAP	47	348	0
TAP	47	360	1
TAP	47	372	2
TAP	48	0	5
TAP	48	24	5
TAP	48	48	4
TAP	48	72	6
TAP	48	96	2
TAP	48	120	2
TAP	48	144	3
TAP	48	168	1
TAP	48	192	7
TAP	48	216	7
TAP	48	240	6
STR	48	264	0
SCL	48	264	0	96	192	0
STR	48	288	7
SCL	48	288	7	96	192	7
STR	48	312	6
SCL	48	312	6	96	192	6
STR	48	336	5
SCL	48	336	5	96	192	5
STR	48	360	4
SCL	48	360	4	96	192	4
STR	49	0	3
SCL	49	0	3	96	192	3
STR	50	24	1
SI_	50	24	1	96	24	6
STR	50	120	5
SI_	50	120	5	96	24	1
STR	50	192	2
SI_	50	192	2	96	24	5
TAP	51	0	7
TAP	51	24	0
TAP	51	48	7
TAP	51	72	0
TAP	51	96	7
TAP	51	120	2
TAP	51	120	6
TAP	51	168	1
TAP	51	168	5
TAP	51	216	0
TAP	51	216	4
TAP	51	264	3
TAP	51	264	7
TAP	51	288	2
STR	51	288	6
SSR	51	288	6	96	72	2
TAP	51	312	5
TAP	51	336	4
TAP	51	360	3
TAP	52	0	2
TAP	52	120	1
TAP	52	144	0
TAP	52	168	7
STR	52	192	6
SSR	52	192	6	96	72	2
TAP	52	216	5
TAP	52	240	4
TAP	52	264	3
TAP	52	288	2
TAP	53	24	0
TAP	53	24	4
TAP	53	48	1
TAP	53	48	5
TAP	53	72	2
TAP	53	72	6
TAP	53	96	3
TAP	53	96	7
TAP	53	120	4
TAP	53	144	5
TAP	53	168	6
TAP	53	192	7
STR	53	216	0
SI_	53	216	0	96	24	6
STR	53	312	4
SI_	53	312	4	96	24	0
STR	54	24	2
SI_	54	24	2	96	24	4
STR	54	96	6
SSR	54	96	6	96	48	2
TAP	55	0	3
TAP	55	16	4
TAP	55	32	3
TAP	55	48	5
TAP	55	64	4
TAP	55	80	5
TAP	55	96	2
TAP	55	112	3
TAP	55	128	2
TAP	55	144	4
TAP	55	160	3
TAP	55	176	4
TAP	55	192	2
TAP	55	208	3
TAP	55	224	2
TAP	55	240	5
TAP	55	256	4
TAP	55	272	5
TAP	55	288	2
TAP	55	304	3
TAP	55	320	2
TAP	55	336	5
TAP	55	352	4
TAP	55	368	5
TAP	56	0	2
STR	56	120	6
SSR	56	120	6	96	48	2
TAP	56	144	6
TAP	56	168	2
TAP	56	168	6
STR	56	312	3
SSR	56	312	3	96	48	7
TAP	56	336	3
TAP	56	360	3
TAP	56	360	7
STR	57	120	6
SSR	57	120	6	96	48	2
TAP	57	144	6
TAP	57	168	2
TAP	57	168	6
STR	57	312	1
SSR	57	312	1	96	48	5
TAP	57	336	1
TAP	57	360	1
TAP	57	360	5
STR	58	120	6
SSR	58	120	6	96	48	2
TAP	58	144	6
TAP	58	168	2
TAP	58	168	6
TAP	58	312	1
TAP	58	336	1
STR	58	360	4
SI_	58	360	4	96	48	7
TAP	59	24	2
TAP	59	48	2
TAP	59	96	1
TAP	59	120	1
STR	59	168	3
SI_	59	168	3	96	48	0
TAP	59	216	5
TAP	59	240	5
TAP	59	288	6
TAP	59	312	6
TAP	60	0	1
STR	60	120	6
SLR	60	120	6	96	48	4
TAP	60	144	6
STR	60	168	4
SI_	60	168	4	96	24	2
TAP	60	168	6
STR	60	312	7
SLR	60	312	7	96	48	5
TAP	60	336	7
STR	60	360	5
SI_	60	360	5	96	24	3
TAP	60	360	7
STR	61	120	6
SLR	61	120	6	96	48	4
TAP	61	144	6
STR	61	168	4
SI_	61	168	4	96	24	2
TAP	61	168	6
STR	61	312	7
SLR	61	312	7	96	48	5
TAP	61	336	7
STR	61	360	5
SI_	61	360	5	96	24	3
TAP	61	360	7
STR	62	120	6
SLR	62	120	6	96	48	4
TAP	62	144	6
STR	62	168	4
SI_	62	168	4	96	24	2
TAP	62	168	6
TAP	62	312	1
TAP	62	336	1
STR	62	360	4
SUL	62	360	4	96	48	7
TAP	63	24	2
TAP	63	48	2
TAP	63	96	1
TAP	63	120	1
STR	63	168	3
SUR	63	168	3	96	48	0
TAP	63	216	5
TAP	63	240	5
TAP	63	288	6
TAP	63	312	6
TAP	64	0	7
TAP	64	24	0
TAP	64	48	7
TAP	64	72	0
TAP	64	96	6
TAP	64	120	1
TAP	64	120	5
TAP	64	168	1
TAP	64	168	5
TAP	64	216	3
TAP	64	216	6
TAP	64	264	3
TAP	64	264	7
TAP	64	288	2
STR	64	288	6
SSR	64	288	6	96	72	2
TAP	64	312	1
TAP	64	312	5
TAP	64	336	0
TAP	64	336	4
TAP	64	360	3
TAP	64	360	7
TAP	65	0	2
TAP	65	0	6
TAP	65	120	4
TAP	65	144	5
TAP	65	168	6
STR	65	192	3
SLR	65	192	3	96	72	1
STR	65	192	7
SLR	65	192	7	96	72	5
TAP	65	216	2
TAP	65	216	6
TAP	65	240	1
TAP	65	240	5
TAP	65	264	0
TAP	65	264	4
TAP	65	288	3
TAP	65	288	7
TAP	66	24	0
TAP	66	48	7
TAP	66	72	6
TAP	66	96	4
TAP	66	108	3
TAP	66	120	2
TAP	66	132	1
TAP	66	144	0
TAP	66	156	7
TAP	66	168	6
TAP	66	180	5
TAP	66	192	4
TAP	66	204	3
TAP	66	216	2
TAP	66	228	1
TAP	66	240	0
TAP	66	252	7
TAP	66	264	6
TAP	66	276	5
TAP	66	288	4
TAP	66	300	3
STR	66	312	2
SCL	66	312	2	96	72	6
STR	66	312	6
SCL	66	312	6	96	72	2
STR	67	24	2
SSR	67	24	2	96	72	6
STR	67	24	6
SSR	67	24	6	96	72	2

T_REC_TAP	473
T_REC_BRK	5
T_REC_XTP	0
T_REC_HLD	15
T_REC_XHO	0
T_REC_STR	130
T_REC_BST	0
T_REC_XST	0
T_REC_TTP	0
T_REC_THO	0
T_REC_SLD	130
T_REC_ALL	753
T_NUM_TAP	603
T_NUM_BRK	5
T_NUM_HLD	15
T_NUM_SLD	130
T_NUM_ALL	753
T_JUDGE_TAP	608
T_JUDGE_HLD	27
T_JUDGE_SLD	130
T_JUDGE_ALL	765
TTM_EACHPAIRS	67
TTM_SCR_TAP	301500
TTM_SCR_BRK	13000
TTM_SCR_HLD	15000
TTM_SCR_SLD	195000
TTM_SCR_ALL	524500
TTM_SCR_S	508300
TTM_SCR_SS	524000
TTM_RAT_ACV	10009

