VERSION	0.00.00	1.03.00
FES_MODE	0
BPM_DEF	147.000	147.000	147.000	147.000
MET_DEF	4	4
RESOLUTION	384
CLK_DEF	384
COMPATIBLE_CODE	MA2

BPM	0	0	147.000
MET	0	0	4	4

TAP	1	0	2
TAP	1	48	4
TAP	1	72	4
TAP	1	96	5
TAP	1	144	3
TAP	1	168	3
TAP	1	192	2
TAP	1	240	4
TAP	1	264	4
TAP	1	288	5
TAP	1	312	3
TAP	1	336	3
STR	1	360	2
SI_	1	360	2	96	48	6
TAP	2	96	0
TAP	2	120	1
TAP	2	144	2
TAP	2	168	3
TAP	2	192	4
TAP	2	216	5
STR	2	360	5
SI_	2	360	5	96	48	1
TAP	3	96	4
TAP	3	120	5
TAP	3	144	6
STR	3	168	7
SI_	3	168	7	96	48	3
TAP	3	288	6
TAP	3	312	7
TAP	3	336	0
STR	3	360	1
SI_	3	360	1	96	48	5
TAP	4	96	3
TAP	4	120	2
TAP	4	144	1
TAP	4	168	0
TAP	5	0	6
TAP	5	24	2
TAP	5	48	4
TAP	5	72	4
TAP	5	96	1
TAP	5	120	5
TAP	5	144	3
TAP	5	168	3
TAP	5	192	6
TAP	5	216	0
TAP	5	240	7
TAP	5	264	7
TAP	5	288	1
STR	5	312	0
SCL	5	312	0	96	72	5
STR	5	336	7
SCL	5	336	7	96	72	4
STR	5	360	6
SCL	5	360	6	96	72	3
TAP	7	0	0
TAP	7	0	4
TAP	7	24	3
TAP	7	24	7
TAP	7	96	3
TAP	7	96	7
TAP	7	120	0
TAP	7	120	4
STR	7	192	0
SCR	7	192	0	96	24	3
STR	7	192	4
SCR	7	192	4	96	24	7
TAP	7	264	0
TAP	7	264	4
TAP	8	0	4
TAP	8	48	2
TAP	8	72	3
TAP	8	119	5
TAP	8	168	4
TAP	8	216	1
TAP	8	240	2
TAP	8	264	1
TAP	8	288	5
TAP	8	312	6
TAP	8	336	5
TAP	9	0	1
TAP	9	24	0
TAP	9	48	6
TAP	9	96	6
TAP	9	120	7
TAP	9	144	0
TAP	9	192	1
TAP	9	216	7
TAP	9	240	0
TAP	9	264	0
TAP	9	288	6
STR	9	312	7
SCR	9	312	7	96	72	2
STR	9	336	0
SCR	9	336	0	96	72	3
STR	9	360	1
SCR	9	360	1	96	72	4
TAP	11	0	3
TAP	11	0	7
TAP	11	24	0
TAP	11	24	4
TAP	11	96	0
TAP	11	96	4
TAP	11	120	3
TAP	11	120	7
STR	11	192	3
SCL	11	192	3	96	24	0
STR	11	192	7
SCL	11	192	7	96	24	4
TAP	11	264	3
TAP	11	264	7
TAP	12	0	0
TAP	12	48	6
TAP	12	72	7
TAP	12	119	1
TAP	12	168	0
TAP	12	216	5
TAP	12	240	6
TAP	12	264	5
TAP	12	288	1
TAP	12	312	2
TAP	12	336	1
TAP	13	0	7
TAP	13	24	0
TAP	13	48	3
TAP	13	72	4
TAP	13	96	6
TAP	13	120	2
TAP	13	168	0
TAP	13	168	4
TAP	13	216	3
TAP	13	216	7
TAP	13	264	0
TAP	13	264	4
TAP	13	288	1
TAP	13	312	2
TAP	13	336	3
TAP	13	360	4
STR	14	0	5
SI_	14	0	5	96	48	1
TAP	14	48	5
TAP	14	72	5
TAP	14	120	2
TAP	14	144	3
TAP	14	168	4
TAP	14	192	6
TAP	14	216	5
TAP	14	240	4
TAP	14	264	3
STR	14	288	2
SI_	14	288	2	96	48	6
TAP	14	336	2
TAP	14	360	2
TAP	15	24	0
TAP	15	48	1
TAP	15	72	2
TAP	15	96	7
TAP	15	120	6
TAP	15	144	5
TAP	15	168	1
TAP	15	192	2
TAP	15	216	3
TAP	15	240	4
TAP	15	264	5
STR	15	288	6
SI_	15	288	6	96	24	3
TAP	15	312	6
STR	16	0	4
SI_	16	0	4	96	24	1
TAP	16	24	4
STR	16	96	2
SI_	16	96	2	96	24	7
TAP	16	168	0
TAP	16	264	7
TAP	16	288	0
TAP	16	312	1
TAP	16	336	7
TAP	16	360	6
TAP	17	0	1
TAP	17	24	2
TAP	17	48	6
TAP	17	72	5
TAP	17	96	2
TAP	17	120	3
TAP	17	144	5
TAP	17	168	4
STR	17	192	3
SI_	17	192	3	96	24	7
BRK	17	264	0
STR	18	24	0
SI_	18	24	0	96	48	5
STR	18	120	6
SI_	18	120	6	96	48	3
STR	18	192	4
SI_	18	192	4	96	48	1
STR	18	288	0
SI_	18	288	0	96	48	3
BRK	18	360	7
STR	19	120	7
SI_	19	120	7	96	48	2
STR	19	192	6
SI_	19	192	6	96	48	2
STR	19	264	3
SI_	19	264	3	96	48	6
STR	20	24	0
SI_	20	24	0	96	48	5
STR	20	96	1
SI_	20	96	1	96	48	5
STR	20	168	4
SI_	20	168	4	96	48	1
TAP	20	288	6
TAP	20	312	5
TAP	20	336	6
TAP	20	360	5
TAP	21	0	6
TAP	21	24	7
TAP	21	48	6
TAP	21	96	1
TAP	21	120	2
TAP	21	144	1
TAP	21	192	2
TAP	21	216	1
TAP	21	264	5
TAP	21	288	6
TAP	21	312	5
TAP	21	336	4
TAP	22	24	6
TAP	22	48	5
TAP	22	72	4
TAP	22	96	3
TAP	22	120	2
TAP	22	144	1
TAP	22	168	0
HLD	22	192	7	72
TAP	22	264	6
TAP	22	288	5
TAP	22	360	7
HLD	23	0	0	72
TAP	23	72	1
TAP	23	96	2
TAP	23	120	1
TAP	23	144	0
TAP	23	168	7
TAP	23	216	6
TAP	23	240	7
TAP	23	264	1
TAP	23	288	0
TAP	23	312	7
TAP	23	336	6
TAP	23	360	4
TAP	23	360	7
TAP	24	24	0
TAP	24	24	3
STR	24	96	1
SI_	24	96	1	96	48	6
STR	24	96	2
SI_	24	96	2	96	48	5
TAP	24	168	1
TAP	24	168	2
TAP	24	312	7
STR	24	360	7
SCL	24	360	7	96	144	4
STR	25	72	5
SCL	25	72	5	96	144	2
STR	25	168	3
SCL	25	168	3	96	120	0
BRK	25	240	0
TAP	26	0	7
STR	26	120	0
SI_	26	120	0	96	48	4
TAP	26	144	4
HLD	26	168	0	144
STR	26	312	7
SI_	26	312	7	96	48	3
TAP	26	336	3
HLD	26	360	7	144
STR	27	120	2
SI_	27	120	2	96	48	6
TAP	27	144	6
HLD	27	168	2	144
STR	27	312	5
SI_	27	312	5	96	48	1
TAP	27	336	1
HLD	27	360	5	144
STR	28	120	3
SI_	28	120	3	96	48	7
TAP	28	144	7
HLD	28	168	3	144
TAP	28	312	1
TAP	28	336	1
STR	28	360	0
SCL	28	360	0	96	48	5
TAP	29	24	2
TAP	29	48	2
TAP	29	96	3
TAP	29	120	3
TAP	29	144	4
STR	29	168	1
SCR	29	168	1	96	48	4
TAP	29	216	0
TAP	29	240	0
TAP	29	288	6
TAP	29	312	6
TAP	30	0	0
STR	30	120	4
SI_	30	120	4	96	24	0
STR	30	144	0
SI_	30	144	0	96	24	3
HLD	30	168	4	144
STR	30	312	3
SI_	30	312	3	96	24	0
STR	30	336	0
SI_	30	336	0	96	24	4
HLD	30	360	3	144
STR	31	120	5
SI_	31	120	5	96	24	0
STR	31	144	0
SI_	31	144	0	96	24	3
HLD	31	168	5	144
STR	31	312	2
SI_	31	312	2	96	24	7
STR	31	336	7
SI_	31	336	7	96	24	4
HLD	31	360	2	144
STR	32	120	6
SI_	32	120	6	96	24	3
STR	32	144	3
SI_	32	144	3	96	24	0
HLD	32	168	6	144
TAP	32	312	7
TAP	32	336	7
STR	32	360	7
SCR	32	360	7	96	48	2
TAP	33	24	5
TAP	33	48	5
TAP	33	96	6
TAP	33	120	6
TAP	33	144	7
STR	33	168	6
SCL	33	168	6	96	48	3
TAP	33	216	0
TAP	33	240	0
TAP	33	288	1
TAP	33	312	1
STR	34	0	0
SCR	34	0	0	96	48	3
HLD	34	0	7	96
STR	34	96	0
SI_	34	96	0	96	48	4
STR	34	192	0
SI_	34	192	0	96	48	3
TAP	34	192	6
TAP	34	264	7
STR	34	288	0
SI_	34	288	0	96	48	5
TAP	34	336	6
STR	35	0	0
SCR	35	0	0	96	48	3
HLD	35	0	6	96
STR	35	96	0
SI_	35	96	0	96	48	4
STR	35	192	0
SI_	35	192	0	96	48	3
TAP	35	192	7
TAP	35	264	6
STR	35	288	0
SI_	35	288	0	96	48	5
TAP	35	336	7
STR	36	0	0
SCR	36	0	0	96	48	3
HLD	36	0	7	96
STR	36	96	0
SI_	36	96	0	96	48	4
STR	36	192	0
SI_	36	192	0	96	48	3
TAP	36	192	6
TAP	36	264	7
STR	36	288	0
SI_	36	288	0	96	96	5
TAP	36	336	6
STR	37	0	5
SCL	37	0	5	96	48	2
STR	37	48	2
SI_	37	48	2	96	96	7
STR	37	144	7
SI_	37	144	7	96	48	4
BRK	37	288	0
HLD	38	0	0	96
STR	38	0	7
SCL	38	0	7	96	48	4
STR	38	96	7
SI_	38	96	7	96	48	3
TAP	38	192	1
STR	38	192	7
SI_	38	192	7	96	48	4
TAP	38	264	0
STR	38	288	7
SI_	38	288	7	96	48	2
TAP	38	336	1
HLD	39	0	1	96
STR	39	0	7
SCL	39	0	7	96	48	4
STR	39	96	7
SI_	39	96	7	96	48	3
TAP	39	192	0
STR	39	192	7
SI_	39	192	7	96	48	4
BRK	39	288	0
STR	40	0	1
SI_	40	0	1	96	48	5
STR	40	48	5
SI_	40	48	5	96	48	1
STR	40	96	1
SCL	40	96	1	96	48	6
STR	40	144	6
SCL	40	144	6	96	48	3
STR	40	288	6
SI_	40	288	6	96	48	2
STR	40	336	2
SI_	40	336	2	96	48	6
STR	41	0	6
SCR	41	0	6	96	48	1
STR	41	48	1
SCR	41	48	1	96	48	4
STR	41	96	4
SI_	41	96	4	96	48	0
BRK	41	240	7
TAP	42	0	0
TAP	42	24	7
TAP	42	48	6
TAP	42	72	5
TAP	42	96	7
TAP	42	120	0
TAP	42	144	1
TAP	42	168	2
TAP	42	192	6
TAP	42	216	5
TAP	42	240	4
TAP	42	264	3
TAP	42	288	1
TAP	42	312	2
TAP	42	336	3
TAP	43	0	5
TAP	43	16	4
TAP	43	32	5
TAP	43	48	4
TAP	43	96	2
TAP	43	112	3
TAP	43	128	2
TAP	43	144	3
TAP	43	192	7
TAP	43	208	6
TAP	43	224	5
TAP	43	240	0
TAP	43	256	1
TAP	43	272	2
TAP	43	288	6
TAP	43	304	5
TAP	43	320	4
TAP	43	336	1
TAP	43	352	2
TAP	43	368	3
TAP	44	0	5
TAP	44	24	4
TAP	44	24	6
TAP	44	96	2
TAP	44	120	1
TAP	44	120	3
TAP	44	192	0
TAP	44	216	1
TAP	44	240	7
TAP	44	264	6
TAP	44	288	1
STR	44	312	0
SCL	44	312	0	96	72	5
STR	44	336	7
SCL	44	336	7	96	72	4
STR	44	360	6
SCL	44	360	6	96	72	3
TAP	46	0	3
TAP	46	0	7
TAP	46	24	1
TAP	46	24	5
TAP	46	96	0
TAP	46	96	4
TAP	46	120	2
TAP	46	120	6
STR	46	192	3
SCR	46	192	3	96	24	6
STR	46	192	7
SCR	46	192	7	96	24	2
TAP	46	264	3
TAP	46	264	7
TAP	47	0	0
TAP	47	48	6
TAP	47	72	7
TAP	47	119	1
TAP	47	168	0
TAP	47	216	5
TAP	47	240	6
TAP	47	264	5
TAP	47	288	1
TAP	47	312	2
TAP	47	336	1
TAP	48	0	6
TAP	48	24	7
TAP	48	48	1
TAP	48	96	1
TAP	48	120	0
TAP	48	144	6
TAP	48	192	7
TAP	48	216	7
TAP	48	240	0
TAP	48	264	1
TAP	48	288	6
STR	48	312	7
SCR	48	312	7	96	72	2
STR	48	336	0
SCR	48	336	0	96	72	3
STR	48	360	1
SCR	48	360	1	96	72	4
TAP	50	0	0
TAP	50	0	4
TAP	50	24	2
TAP	50	24	6
TAP	50	96	3
TAP	50	96	7
TAP	50	120	1
TAP	50	120	5
STR	50	192	0
SCL	50	192	0	96	24	5
STR	50	192	4
SCL	50	192	4	96	24	1
TAP	50	264	0
TAP	50	264	4
TAP	51	0	0
TAP	51	24	7
TAP	51	48	4
TAP	51	72	3
TAP	51	96	1
TAP	51	120	5
TAP	51	168	3
TAP	51	168	7
TAP	51	216	0
TAP	51	216	4
TAP	51	264	3
TAP	51	264	7
TAP	51	288	6
TAP	51	312	5
TAP	51	336	4
TAP	51	360	3
STR	52	0	2
SI_	52	0	2	96	48	6
TAP	52	48	2
TAP	52	72	2
TAP	52	120	5
TAP	52	144	4
TAP	52	168	3
TAP	52	192	1
TAP	52	216	2
TAP	52	240	3
TAP	52	264	4
STR	52	288	5
SI_	52	288	5	96	48	1
TAP	52	336	5
TAP	52	360	5
TAP	53	24	7
TAP	53	48	6
TAP	53	72	5
TAP	53	96	0
TAP	53	120	1
TAP	53	144	2
TAP	53	168	6
TAP	53	192	5
TAP	53	216	4
TAP	53	240	2
TAP	53	264	3
STR	53	288	1
SI_	53	288	1	96	24	4
TAP	53	312	1
STR	54	0	3
SI_	54	0	3	96	24	6
TAP	54	24	3
STR	54	96	5
SI_	54	96	5	96	24	0
TAP	54	168	7
TAP	55	0	5
TAP	55	16	4
TAP	55	32	6
TAP	55	48	4
TAP	55	64	5
TAP	55	80	3
TAP	55	96	5
TAP	55	112	4
TAP	55	128	5
TAP	55	144	2
TAP	55	168	1
TAP	55	168	3
TAP	55	216	5
TAP	55	240	4
TAP	55	240	6
TAP	55	288	3
TAP	55	304	4
TAP	55	320	3
TAP	55	336	2
TAP	55	336	5
TAP	56	0	0
STR	56	120	0
SI_	56	120	0	96	24	5
TAP	56	120	4
TAP	56	144	1
STR	56	144	5
SI_	56	144	5	96	24	2
TAP	56	168	2
TAP	56	168	6
TAP	56	312	3
STR	56	312	7
SI_	56	312	7	96	24	2
STR	56	336	2
SI_	56	336	2	96	24	5
TAP	56	336	6
TAP	56	360	1
TAP	56	360	5
TAP	57	120	0
STR	57	120	4
SI_	57	120	4	96	24	1
STR	57	144	1
SI_	57	144	1	96	24	6
TAP	57	144	5
TAP	57	168	2
TAP	57	168	6
STR	57	312	3
SI_	57	312	3	96	24	6
TAP	57	312	7
TAP	57	336	2
STR	57	336	6
SI_	57	336	6	96	24	1
TAP	57	360	1
TAP	57	360	5
STR	58	120	0
SI_	58	120	0	96	24	5
TAP	58	120	4
TAP	58	144	1
STR	58	144	5
SI_	58	144	5	96	24	1
TAP	58	168	2
TAP	58	168	6
TAP	58	312	3
TAP	58	312	7
TAP	58	336	2
TAP	58	336	6
TAP	58	360	1
TAP	58	360	5
TAP	59	24	2
TAP	59	24	6
TAP	59	48	2
TAP	59	48	6
TAP	59	96	5
TAP	59	120	4
TAP	59	144	3
TAP	59	168	2
TAP	59	216	1
TAP	59	216	5
TAP	59	240	1
TAP	59	240	5
TAP	59	288	2
TAP	59	312	3
TAP	59	336	4
TAP	59	360	5
TAP	60	0	6
TAP	60	120	3
STR	60	120	7
SI_	60	120	7	96	24	2
STR	60	144	2
SI_	60	144	2	96	24	7
TAP	60	144	6
TAP	60	168	1
TAP	60	168	5
STR	60	312	0
SI_	60	312	0	96	24	5
TAP	60	312	4
TAP	60	336	1
STR	60	336	5
SI_	60	336	5	96	24	0
TAP	60	360	2
TAP	60	360	6
STR	61	120	3
SI_	61	120	3	96	24	6
TAP	61	120	7
TAP	61	144	2
STR	61	144	6
SI_	61	144	6	96	24	3
TAP	61	168	1
TAP	61	168	5
TAP	61	312	0
STR	61	312	4
SI_	61	312	4	96	24	1
STR	61	336	1
SI_	61	336	1	96	24	4
TAP	61	336	5
TAP	61	360	2
TAP	61	360	6
STR	62	120	3
SI_	62	120	3	96	24	6
STR	62	120	7
SI_	62	120	7	96	24	2
STR	62	144	2
SI_	62	144	2	96	24	7
STR	62	144	6
SI_	62	144	6	96	24	3
TAP	62	168	1
TAP	62	168	5
TAP	62	312	0
TAP	62	312	4
TAP	62	336	1
TAP	62	336	5
TAP	62	360	2
TAP	62	360	6
TAP	63	24	1
TAP	63	24	5
TAP	63	48	1
TAP	63	48	5
TAP	63	96	2
TAP	63	120	3
TAP	63	144	4
TAP	63	168	5
STR	63	216	2
SCL	63	216	2	96	24	7
STR	63	216	6
SCL	63	216	6	96	24	3
TAP	63	240	2
TAP	63	240	6
TAP	64	0	2
TAP	64	24	3
TAP	64	48	2
STR	64	96	5
SCL	64	96	5	96	48	2
TAP	64	120	5
TAP	64	168	5
TAP	64	288	6
TAP	64	312	7
TAP	64	336	6
TAP	64	360	5
TAP	65	0	4
TAP	65	48	2
TAP	65	48	3
TAP	65	72	2
TAP	65	72	3
TAP	65	120	6
TAP	65	144	7
TAP	65	168	0
TAP	65	192	1
TAP	65	216	0
TAP	65	240	1
TAP	65	264	2
TAP	65	288	3
TAP	65	336	4
TAP	65	336	5
TAP	65	360	4
TAP	65	360	5
TAP	66	24	0
TAP	66	48	6
TAP	66	72	4
TAP	66	96	7
TAP	66	120	1
TAP	66	144	3
TAP	66	168	0
TAP	66	192	6
TAP	66	216	4
TAP	66	240	7
TAP	66	264	1
STR	66	312	1
SI_	66	312	1	96	24	6
STR	67	24	5
SI_	67	24	5	96	24	1
STR	67	96	2
SI_	67	96	2	96	24	5

T_REC_TAP	498
T_REC_BRK	6
T_REC_XTP	0
T_REC_HLD	17
T_REC_XHO	0
T_REC_STR	128
T_REC_BST	0
T_REC_XST	0
T_REC_TTP	0
T_REC_THO	0
T_REC_SLD	128
T_REC_ALL	777
T_NUM_TAP	626
T_NUM_BRK	6
T_NUM_HLD	17
T_NUM_SLD	128
T_NUM_ALL	777
T_JUDGE_TAP	632
T_JUDGE_HLD	44
T_JUDGE_SLD	128
T_JUDGE_ALL	804
TTM_EACHPAIRS	97
TTM_SCR_TAP	313000
TTM_SCR_BRK	15600
TTM_SCR_HLD	17000
TTM_SCR_SLD	192000
TTM_SCR_ALL	537600
TTM_SCR_S	520900
TTM_SCR_SS	537000
TTM_RAT_ACV	10011

