VERSION	0.00.00	1.03.00
FES_MODE	0
BPM_DEF	147.000	147.000	147.000	147.000
MET_DEF	4	4
RESOLUTION	384
CLK_DEF	384
COMPATIBLE_CODE	MA2

BPM	0	0	147.000
MET	0	0	4	4

HLD	1	0	2	48
HLD	1	96	2	48
TAP	1	192	2
TAP	1	240	2
TAP	1	288	2
TAP	1	312	3
TAP	1	336	4
STR	1	360	5
SI_	1	360	5	96	96	1
STR	2	360	0
SI_	2	360	0	96	96	5
STR	3	168	1
SI_	3	168	1	96	96	4
STR	3	360	2
SI_	3	360	2	96	96	6
STR	4	360	7
SI_	4	360	7	96	96	4
STR	5	168	0
SI_	5	168	0	96	96	3
HLD	6	0	6	288
STR	6	48	0
SCL	6	48	0	96	144	5
TAP	6	72	0
TAP	7	0	5
HLD	7	24	5	72
TAP	7	96	1
HLD	7	120	1	72
TAP	7	192	0
TAP	7	216	4
TAP	7	240	6
TAP	7	264	2
TAP	8	0	3
TAP	8	72	2
TAP	8	144	2
TAP	8	216	4
TAP	8	288	5
TAP	8	336	5
TAP	9	0	2
TAP	9	24	2
TAP	9	96	5
TAP	9	120	5
HLD	9	192	0	72
TAP	9	264	6
TAP	9	288	1
TAP	9	312	7
TAP	9	336	0
TAP	9	360	6
HLD	10	0	1	288
STR	10	48	7
SCR	10	48	7	96	144	2
TAP	10	72	7
TAP	11	0	2
HLD	11	24	2	72
TAP	11	96	6
HLD	11	120	6	72
TAP	11	192	7
TAP	11	216	3
TAP	11	240	1
TAP	11	264	5
TAP	12	0	1
TAP	12	72	0
TAP	12	144	6
TAP	12	216	7
TAP	12	288	1
TAP	12	336	6
TAP	13	0	1
TAP	13	24	2
TAP	13	48	3
HLD	13	96	5	120
TAP	13	120	4
TAP	13	168	4
TAP	13	216	4
TAP	13	264	4
TAP	13	288	5
TAP	13	312	6
TAP	13	336	7
HLD	14	0	0	72
TAP	14	48	1
TAP	14	72	1
TAP	14	120	5
TAP	14	144	4
TAP	14	168	5
TAP	14	192	2
TAP	14	216	3
TAP	14	240	2
HLD	14	288	7	72
TAP	14	336	6
TAP	14	360	6
TAP	15	24	2
TAP	15	48	3
TAP	15	72	2
TAP	15	96	5
TAP	15	120	4
TAP	15	144	5
TAP	15	168	3
TAP	15	192	4
TAP	15	216	2
TAP	15	240	3
TAP	15	264	2
TAP	15	312	5
TAP	15	312	6
TAP	16	24	1
TAP	16	24	2
STR	16	96	4
SI_	16	96	4	96	48	0
STR	16	96	7
SI_	16	96	7	96	48	3
TAP	18	0	7
TAP	18	24	0
TAP	18	24	7
TAP	18	96	1
TAP	18	120	0
TAP	18	120	1
STR	18	192	6
SI_	18	192	6	96	48	1
BRK	18	360	3
TAP	19	120	1
TAP	19	120	2
TAP	19	192	4
TAP	19	192	5
TAP	19	264	0
TAP	19	264	7
TAP	20	24	5
TAP	20	24	6
TAP	20	96	0
TAP	20	96	1
TAP	20	168	3
TAP	20	168	4
TAP	20	288	5
TAP	20	312	4
TAP	20	336	5
TAP	21	0	2
TAP	21	24	3
TAP	21	48	2
TAP	21	96	4
TAP	21	120	3
TAP	21	144	4
TAP	21	192	2
TAP	21	216	3
TAP	21	264	5
TAP	21	288	4
TAP	21	312	3
TAP	21	336	2
TAP	22	24	1
TAP	22	48	2
TAP	22	72	3
TAP	22	96	4
TAP	22	120	5
TAP	22	144	6
TAP	22	168	7
STR	22	192	0
SI_	22	192	0	96	48	4
TAP	22	360	7
STR	23	0	7
SI_	23	0	7	96	48	3
TAP	23	216	6
TAP	23	240	5
TAP	23	264	4
TAP	23	288	3
TAP	23	312	2
TAP	23	336	1
TAP	23	360	0
TAP	24	24	7
TAP	24	96	0
TAP	24	96	1
TAP	24	168	5
TAP	24	168	6
TAP	24	240	2
TAP	24	240	3
TAP	24	312	3
TAP	24	312	4
TAP	24	360	0
STR	25	0	0
SI_	25	0	0	96	48	5
STR	25	168	6
SI_	25	168	6	96	48	3
TAP	26	0	3
TAP	26	0	6
TAP	26	120	4
TAP	26	144	5
TAP	26	168	6
TAP	26	312	1
TAP	26	336	2
TAP	26	360	3
TAP	27	120	6
TAP	27	144	7
TAP	27	168	0
TAP	27	312	3
TAP	27	336	4
TAP	27	360	5
TAP	28	120	0
TAP	28	144	1
TAP	28	168	2
TAP	28	312	5
TAP	28	336	6
TAP	28	360	7
TAP	29	24	6
TAP	29	48	7
TAP	29	96	6
TAP	29	120	7
TAP	29	168	3
TAP	29	216	2
TAP	29	240	3
TAP	29	288	2
TAP	29	312	3
TAP	30	0	1
TAP	30	0	4
TAP	30	120	6
TAP	30	144	4
TAP	30	168	2
TAP	30	312	3
TAP	30	336	1
TAP	30	360	7
TAP	31	120	0
TAP	31	144	6
TAP	31	168	4
TAP	31	312	5
TAP	31	336	3
TAP	31	360	1
TAP	32	120	2
TAP	32	144	0
TAP	32	168	6
TAP	32	312	7
TAP	32	336	5
TAP	32	360	3
TAP	33	24	5
TAP	33	48	3
TAP	33	96	5
TAP	33	120	3
TAP	33	168	7
TAP	33	216	1
TAP	33	240	7
TAP	33	288	1
TAP	33	312	7
STR	34	0	2
SCL	34	0	2	96	48	7
TAP	34	0	5
TAP	34	96	5
TAP	34	192	5
TAP	34	192	7
TAP	34	264	0
TAP	34	288	5
TAP	34	336	1
TAP	35	0	2
STR	35	0	5
SCR	35	0	5	96	48	0
TAP	35	96	2
TAP	35	192	0
TAP	35	192	2
TAP	35	264	7
TAP	35	288	2
TAP	35	336	6
STR	36	0	2
SI_	36	0	2	96	48	6
TAP	36	0	5
TAP	36	96	5
TAP	36	192	0
TAP	36	192	5
TAP	36	264	4
TAP	36	288	5
STR	36	336	1
SCL	36	336	1	96	48	6
TAP	37	0	2
TAP	37	48	3
TAP	37	96	4
STR	37	144	5
SCR	37	144	5	96	48	0
TAP	37	288	3
STR	38	0	1
SCR	38	0	1	96	48	4
TAP	38	0	6
TAP	38	96	6
TAP	38	192	4
TAP	38	192	6
TAP	38	264	3
TAP	38	288	6
TAP	38	336	2
TAP	39	0	1
STR	39	0	6
SCL	39	0	6	96	48	3
TAP	39	96	1
TAP	39	192	1
TAP	39	240	4
TAP	39	288	1
TAP	39	312	0
TAP	40	0	4
TAP	40	0	7
TAP	40	48	2
TAP	40	96	5
TAP	40	144	0
TAP	40	144	3
TAP	40	240	1
TAP	40	240	6
TAP	40	288	4
TAP	40	336	0
TAP	41	0	3
TAP	41	48	7
TAP	41	96	2
TAP	41	96	5
BRK	41	240	0
TAP	43	0	1
TAP	43	24	0
TAP	43	48	1
TAP	43	96	6
TAP	43	120	7
TAP	43	144	6
TAP	43	192	2
TAP	43	224	0
TAP	43	256	4
TAP	43	288	5
TAP	43	320	7
TAP	43	352	3
TAP	44	0	1
TAP	44	24	1
TAP	44	96	6
TAP	44	120	6
HLD	44	192	5	72
TAP	44	264	6
TAP	44	288	1
TAP	44	312	7
TAP	44	336	0
TAP	44	360	6
HLD	45	0	1	288
STR	45	48	7
SCR	45	48	7	96	144	2
TAP	45	72	7
TAP	46	0	2
HLD	46	24	2	72
TAP	46	96	6
HLD	46	120	6	72
TAP	46	192	7
TAP	46	216	3
TAP	46	240	1
TAP	46	264	5
TAP	47	0	4
TAP	47	72	5
TAP	47	144	5
TAP	47	216	3
TAP	47	288	2
TAP	47	336	2
TAP	48	0	5
TAP	48	24	5
TAP	48	96	2
TAP	48	120	2
HLD	48	192	7	72
TAP	48	264	1
TAP	48	288	6
TAP	48	312	0
TAP	48	336	7
TAP	48	360	1
HLD	49	0	6	288
STR	49	48	0
SCL	49	48	0	96	144	5
TAP	49	72	0
TAP	50	0	5
HLD	50	24	5	72
TAP	50	96	1
HLD	50	120	1	72
TAP	50	192	0
TAP	50	216	4
TAP	50	240	6
TAP	50	264	2
TAP	51	0	6
TAP	51	24	5
TAP	51	48	4
HLD	51	96	2	120
TAP	51	120	3
TAP	51	168	3
TAP	51	216	3
TAP	51	264	3
TAP	51	288	2
TAP	51	312	1
TAP	51	336	0
HLD	52	0	7	72
TAP	52	48	6
TAP	52	72	6
TAP	52	120	2
TAP	52	144	3
TAP	52	168	2
TAP	52	192	5
TAP	52	216	4
TAP	52	240	5
HLD	52	288	0	72
TAP	52	336	1
TAP	52	360	1
TAP	53	24	5
TAP	53	48	4
TAP	53	72	5
TAP	53	96	2
TAP	53	120	3
TAP	53	144	2
TAP	53	168	4
TAP	53	192	3
TAP	53	216	5
TAP	53	240	4
TAP	53	264	5
TAP	53	312	1
TAP	53	312	2
TAP	54	24	5
TAP	54	24	6
STR	54	96	0
SI_	54	96	0	96	48	4
STR	54	96	3
SI_	54	96	3	96	48	7
TAP	56	0	2
TAP	56	0	7
TAP	56	96	0
TAP	56	120	7
TAP	56	144	6
TAP	56	168	5
TAP	56	288	3
TAP	56	312	2
TAP	56	336	1
TAP	56	360	0
TAP	57	96	6
TAP	57	120	5
TAP	57	144	4
TAP	57	168	3
TAP	57	288	1
TAP	57	312	0
TAP	57	336	7
TAP	57	360	6
TAP	58	96	4
TAP	58	120	3
TAP	58	144	2
TAP	58	168	1
TAP	58	288	7
TAP	58	312	6
TAP	58	336	5
TAP	58	360	4
TAP	59	24	4
TAP	59	48	5
TAP	59	96	5
TAP	59	120	6
TAP	59	168	3
TAP	59	216	3
TAP	59	240	2
TAP	59	288	2
TAP	59	312	1
TAP	60	0	0
TAP	60	0	5
TAP	60	96	7
TAP	60	120	1
TAP	60	144	3
BRK	60	168	5
TAP	60	288	2
TAP	60	312	4
TAP	60	336	6
BRK	60	360	0
TAP	61	96	5
TAP	61	120	7
TAP	61	144	1
BRK	61	168	3
TAP	61	288	0
TAP	61	312	2
TAP	61	336	4
BRK	61	360	6
TAP	62	96	3
TAP	62	120	5
TAP	62	144	7
BRK	62	168	1
TAP	62	288	6
TAP	62	312	0
TAP	62	336	2
TAP	62	360	4
TAP	63	24	4
TAP	63	48	2
TAP	63	96	2
TAP	63	120	0
TAP	63	168	3
TAP	63	216	3
TAP	63	240	5
TAP	63	288	5
TAP	63	312	7
TAP	65	0	0
TAP	65	24	1
TAP	65	48	2
TAP	65	72	3
TAP	65	120	6
TAP	65	144	2
TAP	65	168	4
TAP	65	192	1
TAP	65	216	5
TAP	65	240	3
TAP	65	288	7
TAP	65	312	6
TAP	65	336	5
TAP	65	360	4
TAP	66	24	1
TAP	66	48	5
TAP	66	72	3
TAP	66	96	6
TAP	66	120	2
TAP	66	144	4
TAP	66	168	0
TAP	66	192	5
TAP	66	216	1
TAP	66	240	7
TAP	66	264	3
STR	66	312	1
SI_	66	312	1	96	24	4
STR	66	312	2
SI_	66	312	2	96	24	7
STR	67	96	5
SI_	67	96	5	96	24	0
STR	67	96	6
SI_	67	96	6	96	24	3

T_REC_TAP	417
T_REC_BRK	7
T_REC_XTP	0
T_REC_HLD	23
T_REC_XHO	0
T_REC_STR	30
T_REC_BST	0
T_REC_XST	0
T_REC_TTP	0
T_REC_THO	0
T_REC_SLD	30
T_REC_ALL	507
T_NUM_TAP	447
T_NUM_BRK	7
T_NUM_HLD	23
T_NUM_SLD	30
T_NUM_ALL	507
T_JUDGE_TAP	454
T_JUDGE_HLD	62
T_JUDGE_SLD	30
T_JUDGE_ALL	546
TTM_EACHPAIRS	37
TTM_SCR_TAP	223500
TTM_SCR_BRK	18200
TTM_SCR_HLD	23000
TTM_SCR_SLD	45000
TTM_SCR_ALL	309700
TTM_SCR_S	299750
TTM_SCR_SS	309000
TTM_RAT_ACV	10022

