VERSION	0.00.00	1.03.00
FES_MODE	0
BPM_DEF	147.000	147.000	147.000	147.000
MET_DEF	4	4
RESOLUTION	384
CLK_DEF	384
COMPATIBLE_CODE	MA2

BPM	0	0	147.000
MET	0	0	4	4

TAP	1	0	2
TAP	1	96	1
TAP	1	192	0
TAP	1	288	6
TAP	1	288	7
TAP	2	0	0
TAP	2	96	1
TAP	2	192	2
TAP	2	288	3
TAP	3	0	4
TAP	3	96	5
TAP	3	192	6
TAP	3	288	7
TAP	4	0	6
TAP	4	96	5
TAP	4	192	3
TAP	4	192	4
TAP	5	0	2
TAP	5	96	1
TAP	5	96	4
TAP	5	192	5
BRK	5	288	6
BRK	5	288	7
TAP	6	0	0
STR	6	0	6
SI_	6	0	6	96	96	2
TAP	7	0	3
TAP	7	96	4
HLD	7	192	5	72
TAP	8	0	2
TAP	8	96	6
TAP	8	96	7
TAP	8	288	0
TAP	8	288	1
TAP	9	96	4
TAP	9	96	5
TAP	9	288	2
TAP	9	288	3
STR	10	0	1
SI_	10	0	1	96	96	5
TAP	10	0	7
TAP	11	0	6
TAP	11	96	7
HLD	11	192	0	72
TAP	12	0	5
TAP	12	96	0
TAP	12	96	1
TAP	12	288	6
TAP	12	288	7
TAP	13	96	2
TAP	13	96	3
TAP	13	288	4
TAP	13	288	5
STR	14	0	0
SI_	14	0	0	96	96	4
STR	14	288	7
SI_	14	288	7	96	96	3
TAP	15	192	1
TAP	15	288	1
TAP	16	0	0
HLD	16	96	6	72
BRK	16	168	7
STR	16	288	6
SCR	16	288	6	96	192	1
TAP	18	0	2
TAP	18	96	3
TAP	18	192	4
HLD	18	288	5	72
TAP	19	96	1
HLD	19	192	0	72
TAP	20	48	6
TAP	20	120	6
HLD	20	192	6	192
TAP	21	0	5
TAP	21	96	4
TAP	21	192	3
TAP	21	288	2
TAP	22	96	0
TAP	22	96	1
TAP	22	288	6
TAP	22	288	7
TAP	23	96	1
TAP	23	96	2
TAP	23	288	5
TAP	23	288	6
TAP	24	96	2
TAP	24	96	3
TAP	24	288	4
TAP	24	288	5
TAP	25	0	3
TAP	25	72	3
TAP	25	144	4
TAP	25	216	4
TAP	26	0	7
TAP	26	96	0
TAP	26	168	0
TAP	26	288	1
TAP	26	360	1
TAP	27	96	2
TAP	27	168	2
TAP	27	288	3
TAP	27	360	3
TAP	28	96	4
TAP	28	168	4
TAP	28	288	3
TAP	28	288	4
TAP	29	0	5
TAP	29	96	5
TAP	29	192	6
TAP	29	288	6
TAP	30	0	0
TAP	30	96	7
TAP	30	168	7
TAP	30	288	6
TAP	30	360	6
TAP	31	96	5
TAP	31	168	5
TAP	31	288	4
TAP	31	360	4
TAP	32	96	3
TAP	32	168	3
TAP	32	288	3
TAP	32	288	4
TAP	33	0	2
TAP	33	96	1
TAP	33	192	0
BRK	33	288	0
BRK	33	288	7
HLD	34	0	0	192
TAP	34	192	2
TAP	34	288	2
HLD	35	0	2	192
TAP	35	192	4
TAP	35	288	4
HLD	36	0	4	192
TAP	36	192	6
TAP	36	288	6
HLD	37	0	6	144
HLD	37	144	0	144
TAP	37	288	7
HLD	38	0	7	192
TAP	38	192	5
TAP	38	288	5
HLD	39	0	5	288
TAP	39	288	4
HLD	40	0	5	144
TAP	40	144	4
HLD	40	288	2	144
TAP	41	48	3
TAP	41	240	0
TAP	41	240	7
STR	42	0	1
SCL	42	0	1	96	192	6
STR	43	0	5
SCL	43	0	5	96	192	2
TAP	44	0	1
TAP	44	96	6
TAP	44	192	0
TAP	44	192	7
TAP	44	264	0
TAP	44	264	7
STR	45	0	1
SI_	45	0	1	96	96	5
TAP	45	0	7
TAP	46	0	3
TAP	46	96	3
TAP	46	192	3
TAP	46	264	3
TAP	46	264	4
STR	47	0	1
SI_	47	0	1	96	96	5
STR	47	192	7
SI_	47	192	7	96	96	3
STR	48	0	2
SI_	48	0	2	96	96	5
STR	48	192	6
SI_	48	192	6	96	96	1
TAP	49	0	2
HLD	49	72	0	216
TAP	50	0	6
TAP	50	96	6
TAP	50	192	4
TAP	50	264	4
STR	51	0	0
SCR	51	0	0	96	144	3
STR	51	0	7
SCL	51	0	7	96	144	4
TAP	52	0	2
TAP	52	72	2
TAP	52	192	1
TAP	52	288	0
TAP	52	360	0
TAP	53	96	7
TAP	53	192	0
TAP	53	192	7
TAP	53	312	6
TAP	54	24	6
TAP	54	96	6
BRK	54	168	6
STR	54	288	6
SCR	54	288	6	96	192	1
HLD	56	0	2	144
HLD	56	144	3	192
HLD	56	336	4	192
TAP	57	144	5
HLD	57	336	5	192
HLD	58	144	4	192
HLD	58	337	3	143
TAP	59	96	2
TAP	59	192	5
TAP	59	288	4
TAP	60	0	0
TAP	60	144	0
TAP	60	144	1
TAP	60	336	7
TAP	61	144	6
TAP	61	144	7
TAP	61	336	2
TAP	62	144	2
TAP	62	144	3
TAP	62	336	5
TAP	63	96	4
TAP	63	192	5
TAP	63	288	4
TAP	63	288	5
TAP	64	96	1
TAP	64	192	0
TAP	64	288	6
TAP	64	288	7
TAP	65	0	2
TAP	65	72	1
TAP	65	72	3
TAP	65	192	3
TAP	65	192	4
TAP	65	288	5
TAP	65	360	4
TAP	65	360	6
TAP	66	96	3
TAP	66	96	4
TAP	66	192	0
TAP	66	192	7
TAP	66	312	1
TAP	66	312	6
TAP	67	24	1
TAP	67	24	6
STR	67	96	0
SI_	67	96	0	96	24	3
STR	67	96	7
SI_	67	96	7	96	24	4

T_REC_TAP	187
T_REC_BRK	6
T_REC_XTP	0
T_REC_HLD	22
T_REC_XHO	0
T_REC_STR	17
T_REC_BST	0
T_REC_XST	0
T_REC_TTP	0
T_REC_THO	0
T_REC_SLD	17
T_REC_ALL	249
T_NUM_TAP	204
T_NUM_BRK	6
T_NUM_HLD	22
T_NUM_SLD	17
T_NUM_ALL	249
T_JUDGE_TAP	210
T_JUDGE_HLD	75
T_JUDGE_SLD	17
T_JUDGE_ALL	302
TTM_EACHPAIRS	43
TTM_SCR_TAP	102000
TTM_SCR_BRK	15600
TTM_SCR_HLD	22000
TTM_SCR_SLD	25500
TTM_SCR_ALL	165100
TTM_SCR_S	159600
TTM_SCR_SS	164500
TTM_RAT_ACV	10036

