VERSION	0.00.00	1.03.00
FES_MODE	0
BPM_DEF	147.000	147.000	147.000	147.000
MET_DEF	4	4
RESOLUTION	384
CLK_DEF	384
COMPATIBLE_CODE	MA2

BPM	0	0	147.000
MET	0	0	4	4

HLD	2	0	0	288
TAP	3	0	2
TAP	3	192	2
STR	4	0	7
SI_	4	0	7	96	288	4
HLD	6	0	2	288
STR	7	0	1
SI_	7	0	1	96	192	5
TAP	8	96	3
TAP	8	288	3
TAP	9	96	3
TAP	9	288	3
HLD	10	0	5	288
STR	11	0	6
SI_	11	0	6	96	192	2
TAP	12	96	4
TAP	12	288	4
TAP	13	96	4
TAP	13	288	4
TAP	14	0	4
TAP	14	0	5
TAP	14	192	6
TAP	14	288	6
TAP	14	288	7
TAP	15	96	0
TAP	15	192	1
HLD	15	288	1	264
HLD	15	288	3	264
TAP	18	0	2
TAP	18	192	1
TAP	19	0	0
TAP	19	0	1
TAP	19	192	0
TAP	19	192	1
STR	20	0	1
SI_	20	0	1	96	192	5
TAP	21	0	6
TAP	21	0	7
TAP	21	192	6
TAP	21	192	7
TAP	22	0	6
TAP	22	192	5
TAP	23	0	4
TAP	23	192	3
TAP	24	0	2
TAP	24	0	3
TAP	24	192	2
TAP	24	192	3
STR	25	0	3
SI_	25	0	3	96	192	0
HLD	26	0	7	168
HLD	27	0	6	168
HLD	28	0	5	168
TAP	29	0	3
TAP	29	0	4
TAP	29	192	3
TAP	29	192	4
HLD	30	0	3	168
HLD	31	0	2	168
HLD	32	0	1	168
TAP	33	0	0
TAP	33	0	7
TAP	33	192	0
TAP	33	192	7
STR	34	0	7
SI_	34	0	7	96	192	2
TAP	35	0	2
TAP	35	192	2
STR	36	0	2
SI_	36	0	2	96	192	5
TAP	37	0	5
TAP	37	192	5
STR	38	0	5
SI_	38	0	5	96	192	0
TAP	39	0	0
TAP	39	192	0
HLD	40	0	0	144
HLD	40	0	7	144
HLD	40	288	1	192
HLD	40	288	6	192
BRK	41	240	0
BRK	41	240	7
TAP	42	0	1
TAP	42	192	2
TAP	43	0	3
TAP	43	96	3
TAP	43	192	3
TAP	43	288	3
TAP	44	0	2
TAP	44	192	1
HLD	45	0	0	288
HLD	45	0	1	288
STR	46	0	1
SI_	46	0	1	96	192	5
TAP	47	96	3
TAP	47	288	3
TAP	48	96	3
TAP	48	288	3
HLD	49	0	4	288
HLD	49	0	5	288
STR	50	0	6
SI_	50	0	6	96	192	2
TAP	51	96	4
TAP	51	288	4
TAP	52	0	4
TAP	52	0	5
TAP	52	192	6
TAP	52	288	6
TAP	52	288	7
TAP	53	96	0
TAP	53	192	1
HLD	53	288	1	264
HLD	53	288	3	264
STR	56	0	0
SI_	56	0	0	96	192	3
STR	57	0	7
SI_	57	0	7	96	192	4
STR	58	0	1
SI_	58	0	1	96	192	6
TAP	59	0	5
TAP	59	96	5
TAP	59	192	4
TAP	59	288	4
STR	60	0	5
SI_	60	0	5	96	192	2
STR	61	0	1
SI_	61	0	1	96	192	6
STR	62	0	7
SI_	62	0	7	96	192	4
TAP	63	0	0
TAP	63	96	0
TAP	63	192	1
TAP	63	288	1
TAP	65	0	2
TAP	65	0	3
TAP	65	192	1
TAP	65	288	0
TAP	65	288	1
TAP	66	96	7
TAP	66	192	6
HLD	66	288	1	264
HLD	66	288	6	264

T_REC_TAP	85
T_REC_BRK	2
T_REC_XTP	0
T_REC_HLD	23
T_REC_XHO	0
T_REC_STR	16
T_REC_BST	0
T_REC_XST	0
T_REC_TTP	0
T_REC_THO	0
T_REC_SLD	16
T_REC_ALL	142
T_NUM_TAP	101
T_NUM_BRK	2
T_NUM_HLD	23
T_NUM_SLD	16
T_NUM_ALL	142
T_JUDGE_TAP	103
T_JUDGE_HLD	116
T_JUDGE_SLD	16
T_JUDGE_ALL	235
TTM_EACHPAIRS	24
TTM_SCR_TAP	50500
TTM_SCR_BRK	5200
TTM_SCR_HLD	23000
TTM_SCR_SLD	24000
TTM_SCR_ALL	102700
TTM_SCR_S	99450
TTM_SCR_SS	102500
TTM_RAT_ACV	10019

