VERSION	0.00.00	1.03.00
FES_MODE	0
BPM_DEF	150.000	150.000	150.000	150.000
MET_DEF	4	4
RESOLUTION	384
CLK_DEF	384
COMPATIBLE_CODE	MA2

BPM	0	0	150.000
MET	0	0	4	4

HLD	1	0	0	288
BRK	1	288	7
TAP	2	0	1
TAP	2	48	1
TAP	2	96	2
TAP	2	192	4
TAP	2	240	4
TAP	2	288	5
TAP	3	0	7
TAP	3	48	7
TAP	3	96	0
STR	3	192	0
SI_	3	192	0	96	48	3
STR	3	240	3
SCR	3	240	3	96	48	6
TAP	3	288	6
TAP	4	0	7
TAP	4	48	7
TAP	4	96	0
TAP	4	192	6
TAP	4	240	6
TAP	4	288	5
TAP	5	0	1
TAP	5	24	1
TAP	5	48	3
TAP	5	72	3
TAP	5	120	4
TAP	5	168	5
TAP	5	216	6
TAP	5	264	7
TAP	5	312	7
TAP	5	336	0
TAP	5	336	7
TAP	6	0	1
TAP	6	48	1
TAP	6	96	2
TAP	6	144	4
TAP	6	192	6
TAP	6	240	6
TAP	6	288	7
TAP	6	336	0
TAP	7	0	2
TAP	7	48	2
TAP	7	96	3
TAP	7	144	5
STR	7	192	0
SI_	7	192	0	96	48	3
STR	7	240	3
SCR	7	240	3	96	48	6
TAP	7	288	6
TAP	7	336	7
TAP	8	0	0
TAP	8	48	0
TAP	8	96	7
TAP	8	144	5
TAP	8	192	3
TAP	8	240	3
TAP	8	288	2
TAP	8	336	0
TAP	9	0	6
TAP	9	24	6
TAP	9	48	4
TAP	9	72	4
TAP	9	120	3
TAP	9	168	2
TAP	9	216	1
TAP	9	264	0
TAP	9	312	0
TAP	9	336	0
TAP	9	336	7
HLD	10	0	1	72
TAP	10	72	2
TAP	10	96	1
TAP	10	144	7
HLD	10	192	6	72
TAP	10	264	5
TAP	10	288	6
TAP	10	336	0
HLD	11	0	1	72
TAP	11	72	0
TAP	11	96	1
TAP	11	144	2
STR	11	192	4
SI_	11	192	4	96	48	0
TAP	11	240	4
STR	11	288	2
SI_	11	288	2	96	48	6
TAP	11	336	2
HLD	12	0	1	72
TAP	12	72	2
TAP	12	96	1
TAP	12	144	3
HLD	12	192	0	72
TAP	12	264	1
TAP	12	288	0
TAP	12	336	2
HLD	13	0	7	72
TAP	13	72	0
TAP	13	96	7
TAP	13	144	1
HLD	13	192	5	72
TAP	13	264	6
STR	13	288	4
SI_	13	288	4	96	48	0
TAP	13	336	4
TAP	14	96	7
STR	14	144	6
SI_	14	144	6	96	48	2
TAP	14	288	1
STR	14	336	1
SI_	14	336	1	96	48	4
TAP	15	96	0
STR	15	144	0
SI_	15	144	0	96	48	5
TAP	15	144	4
TAP	15	288	7
STR	15	336	7
SCR	15	336	7	96	48	2
STR	16	96	7
SI_	16	96	7	96	48	4
HLD	16	241	7	95
HLD	16	336	6	96
TAP	17	48	4
TAP	17	96	3
HLD	17	144	2	144
BRK	17	288	0
HLD	18	0	6	72
TAP	18	72	5
TAP	18	96	6
TAP	18	144	0
HLD	18	192	1	72
TAP	18	264	2
TAP	18	288	1
TAP	18	336	7
HLD	19	0	6	72
TAP	19	72	7
TAP	19	96	6
TAP	19	144	5
TAP	19	192	3
TAP	19	216	2
TAP	19	264	2
TAP	19	288	3
TAP	19	312	4
TAP	19	336	3
HLD	20	0	6	72
TAP	20	72	5
TAP	20	96	6
TAP	20	144	4
HLD	20	192	7	72
TAP	20	264	6
TAP	20	288	7
TAP	20	336	5
HLD	21	0	0	72
TAP	21	72	7
TAP	21	96	0
TAP	21	144	6
TAP	21	192	2
BRK	21	240	0
BRK	21	240	1
STR	21	288	3
SI_	21	288	3	96	48	7
TAP	21	336	3
TAP	22	96	0
STR	22	144	1
SI_	22	144	1	96	48	5
TAP	22	288	6
STR	22	336	6
SI_	22	336	6	96	48	3
TAP	23	96	7
TAP	23	144	3
STR	23	144	7
SI_	23	144	7	96	48	2
TAP	23	288	0
STR	23	336	0
SCL	23	336	0	96	48	5
STR	24	96	0
SI_	24	96	0	96	48	3
HLD	24	240	0	96
HLD	24	336	1	96
TAP	25	48	3
TAP	25	96	4
TAP	25	144	4
TAP	25	192	2
TAP	25	216	3
TAP	25	264	3
TAP	25	312	5
TAP	25	336	4
TAP	26	0	6
TAP	26	48	5
TAP	26	72	4
TAP	26	120	4
HLD	26	144	2	96
TAP	26	240	1
STR	26	288	0
SI_	26	288	0	96	49	5
TAP	26	288	1
TAP	27	0	2
TAP	27	24	2
TAP	27	72	4
TAP	27	120	6
HLD	27	144	7	96
TAP	27	240	0
TAP	27	288	1
STR	27	288	2
SI_	27	288	2	96	48	7
TAP	28	0	6
TAP	28	24	6
TAP	28	72	5
TAP	28	120	3
TAP	28	144	3
TAP	28	168	2
TAP	28	216	3
TAP	28	264	5
TAP	28	288	5
TAP	28	312	7
TAP	28	336	7
HLD	29	0	0	72
TAP	29	72	1
TAP	29	120	0
TAP	29	168	5
TAP	29	168	7
TAP	29	216	0
TAP	29	240	1
TAP	29	264	2
BRK	29	288	3
TAP	30	0	4
TAP	30	48	3
TAP	30	72	2
TAP	30	120	2
HLD	30	144	0	96
TAP	30	240	7
STR	30	288	6
SI_	30	288	6	96	48	3
TAP	30	288	7
TAP	31	0	0
TAP	31	24	0
TAP	31	72	2
TAP	31	120	4
HLD	31	144	4	96
TAP	31	240	5
TAP	31	288	5
STR	31	288	7
SI_	31	288	7	96	48	2
TAP	32	0	6
TAP	32	24	6
TAP	32	72	5
TAP	32	120	3
TAP	32	144	3
TAP	32	168	2
TAP	32	216	3
TAP	32	264	5
TAP	32	288	5
TAP	32	312	7
TAP	32	336	7
HLD	33	0	0	72
TAP	33	72	1
TAP	33	120	0
TAP	33	168	5
TAP	33	168	7
TAP	33	216	0
TAP	33	240	1
TAP	33	264	2
BRK	33	288	3
TAP	34	0	6
TAP	34	48	4
TAP	34	72	5
TAP	34	96	4
TAP	34	120	5
HLD	34	144	2	96
TAP	34	240	7
TAP	34	288	4
STR	34	288	7
SI_	34	288	7	96	48	2
TAP	35	0	6
TAP	35	24	6
TAP	35	72	7
TAP	35	120	3
HLD	35	144	3	96
TAP	35	240	4
STR	35	288	5
SI_	35	288	5	96	48	0
TAP	36	0	1
TAP	36	24	1
TAP	36	72	2
TAP	36	120	4
TAP	36	144	4
TAP	36	168	5
TAP	36	216	4
TAP	36	264	2
TAP	36	288	2
TAP	36	312	0
TAP	36	336	0
HLD	37	0	7	72
TAP	37	72	6
TAP	37	120	7
TAP	37	168	0
TAP	37	168	2
TAP	37	216	7
TAP	37	240	6
TAP	37	264	5
BRK	37	288	4
TAP	38	0	3
TAP	38	48	5
TAP	38	72	4
TAP	38	96	5
TAP	38	120	4
HLD	38	144	7	96
TAP	38	240	0
TAP	38	288	0
STR	38	288	1
SI_	38	288	1	96	48	4
TAP	39	0	7
TAP	39	24	7
TAP	39	72	5
TAP	39	120	3
HLD	39	144	3	96
TAP	39	240	2
STR	39	288	0
SI_	39	288	0	96	48	5
TAP	39	288	2
TAP	40	0	1
TAP	40	24	1
TAP	40	72	2
TAP	40	120	4
TAP	40	144	4
TAP	40	168	5
TAP	40	216	4
TAP	40	264	2
TAP	40	288	2
TAP	40	312	0
TAP	40	336	0
HLD	41	0	7	72
TAP	41	72	6
TAP	41	120	7
TAP	41	168	0
TAP	41	168	2
TAP	41	216	7
TAP	41	240	6
TAP	41	264	5
TAP	41	288	4
TAP	41	312	3
TAP	41	336	2
BRK	41	360	1
TAP	42	0	0
TAP	42	96	4
TAP	42	96	5
TAP	42	144	6
TAP	42	192	7
TAP	42	240	0
TAP	42	288	5
TAP	42	312	4
TAP	43	0	1
TAP	43	24	2
TAP	43	48	1
TAP	43	96	3
TAP	43	96	7
TAP	43	144	0
TAP	43	192	6
TAP	43	216	6
BRK	43	240	7
BRK	43	288	1
BRK	43	288	5
TAP	44	0	2
TAP	44	24	3
TAP	44	48	2
TAP	44	96	1
TAP	44	96	5
TAP	44	144	6
TAP	44	192	7
TAP	44	240	0
TAP	44	288	6
TAP	44	312	7
TAP	45	0	2
TAP	45	24	1
TAP	45	48	2
TAP	45	96	1
TAP	45	96	5
TAP	45	144	0
TAP	45	192	1
TAP	45	216	1
BRK	45	240	0
BRK	45	288	2
BRK	45	288	6
TAP	46	0	4
TAP	46	24	5
TAP	46	48	4
TAP	46	96	6
TAP	46	96	7
TAP	46	144	0
TAP	46	192	7
TAP	46	240	6
TAP	46	288	0
TAP	46	312	1
TAP	47	0	6
TAP	47	24	5
TAP	47	48	6
TAP	47	96	0
TAP	47	96	1
TAP	47	144	2
TAP	47	192	0
BRK	47	216	1
BRK	47	216	7
BRK	47	288	0
BRK	47	288	6
TAP	48	0	6
TAP	48	24	7
TAP	48	48	6
TAP	48	96	0
TAP	48	96	4
TAP	48	144	7
TAP	48	192	6
TAP	48	240	5
TAP	48	288	2
TAP	48	312	3
TAP	49	0	6
TAP	49	24	5
TAP	49	48	6
TAP	49	96	1
TAP	49	96	5
TAP	49	144	2
TAP	49	192	1
TAP	49	216	1
BRK	49	240	0
BRK	49	288	2
BRK	49	288	6
HLD	50	0	6	72
TAP	50	72	5
TAP	50	96	6
TAP	50	144	0
HLD	50	192	1	72
TAP	50	264	2
TAP	50	288	1
TAP	50	336	7
HLD	51	0	6	72
TAP	51	72	7
TAP	51	96	6
TAP	51	144	5
TAP	51	192	4
TAP	51	216	3
TAP	51	264	3
TAP	51	288	2
TAP	51	312	3
TAP	51	336	2
HLD	52	0	6	72
TAP	52	72	5
TAP	52	96	6
TAP	52	144	4
HLD	52	192	7	72
TAP	52	264	6
TAP	52	288	7
TAP	52	336	5
HLD	53	0	0	72
TAP	53	72	7
TAP	53	96	0
TAP	53	144	6
TAP	53	192	2
BRK	53	240	4
BRK	53	240	6
TAP	53	336	0
STR	54	0	0
SI_	54	0	0	96	96	5
STR	54	96	5
SI_	54	96	5	96	96	1
TAP	54	144	5
STR	54	240	1
SI_	54	240	1	96	48	4
STR	54	288	4
SI_	54	288	4	96	48	7
STR	54	336	7
SI_	54	336	7	96	48	3
BRK	55	48	0
STR	55	144	7
SI_	55	144	7	96	48	2
STR	55	192	2
SI_	55	192	2	96	48	6
STR	55	240	6
SI_	55	240	6	96	96	3
STR	55	336	3
SCL	55	336	3	96	96	0
STR	56	48	0
SCL	56	48	0	96	96	5
STR	56	144	5
SCL	56	144	5	96	96	2
TAP	56	240	7
TAP	56	288	0
TAP	56	336	1
TAP	57	48	7
TAP	57	96	6
TAP	57	144	5
TAP	57	192	2
TAP	57	216	3
TAP	57	264	3
TAP	57	312	7
BRK	57	336	6
TAP	58	0	1
TAP	58	24	0
TAP	58	48	1
TAP	58	72	7
TAP	58	96	0
TAP	58	120	7
HLD	58	144	0	96
TAP	58	240	7
TAP	58	288	6
STR	58	288	7
SI_	58	288	7	96	48	2
TAP	59	0	5
TAP	59	24	5
TAP	59	72	3
TAP	59	120	1
HLD	59	144	1	96
TAP	59	240	0
STR	59	288	0
SI_	59	288	0	96	48	5
TAP	59	288	1
TAP	60	0	1
TAP	60	24	1
TAP	60	72	3
TAP	60	120	5
TAP	60	144	4
TAP	60	168	5
TAP	60	216	3
TAP	60	264	1
TAP	60	288	1
TAP	60	312	7
TAP	60	336	7
HLD	61	0	0	72
TAP	61	72	1
TAP	61	120	0
TAP	61	120	3
TAP	61	168	5
TAP	61	216	6
TAP	61	240	7
TAP	61	264	0
BRK	61	288	1
TAP	62	0	6
TAP	62	24	7
TAP	62	48	6
TAP	62	72	0
TAP	62	96	7
TAP	62	120	0
HLD	62	144	7	96
TAP	62	240	0
STR	62	288	0
SI_	62	288	0	96	48	4
TAP	62	288	1
TAP	63	0	1
TAP	63	24	1
TAP	63	72	3
TAP	63	120	5
HLD	63	144	6	96
TAP	63	240	7
TAP	63	288	6
STR	63	288	7
SI_	63	288	7	96	48	2
TAP	64	0	6
TAP	64	24	6
TAP	64	72	4
TAP	64	120	2
TAP	64	144	3
TAP	64	168	2
TAP	64	216	4
TAP	64	264	6
TAP	64	288	6
TAP	64	312	0
TAP	64	336	0
HLD	65	0	7	72
TAP	65	72	6
TAP	65	120	4
TAP	65	120	7
TAP	65	168	1
TAP	65	216	0
TAP	65	240	6
TAP	65	264	4
STR	65	288	2
SI_	65	288	2	96	48	6
STR	66	0	0
SI_	66	0	0	96	48	4
BRK	66	96	0
STR	66	96	6
SI_	66	96	6	96	48	3
STR	66	192	7
SI_	66	192	7	96	48	2
STR	66	288	0
SI_	66	288	0	96	48	5
BRK	66	288	7
STR	67	0	6
SI_	67	0	6	96	48	3
STR	67	96	4
SI_	67	96	4	96	48	1
BRK	67	96	6
STR	67	192	2
SI_	67	192	2	96	48	7
STR	67	288	0
SCR	67	288	0	96	48	3
BRK	67	288	2
TAP	68	0	7
TAP	68	24	6
TAP	68	48	5
TAP	68	72	4
TAP	68	144	5
TAP	68	168	6
TAP	68	192	7
TAP	68	216	0
TAP	68	288	5
TAP	68	312	4
TAP	68	336	3
TAP	68	360	2
HLD	69	0	1	72
TAP	69	72	0
TAP	69	120	1
TAP	69	120	3
TAP	69	168	4
TAP	69	216	5
TAP	69	240	3
TAP	69	264	1
STR	69	288	7
SI_	69	288	7	96	48	4
STR	70	0	0
SI_	70	0	0	96	48	4
BRK	70	0	7
BRK	70	96	0
STR	70	96	6
SI_	70	96	6	96	48	2
BRK	70	192	6
STR	70	192	7
SI_	70	192	7	96	48	3
STR	70	288	4
SI_	70	288	4	96	48	7
BRK	70	288	7
STR	71	0	3
SI_	71	0	3	96	48	7
BRK	71	0	4
BRK	71	96	3
STR	71	96	5
SI_	71	96	5	96	48	1
STR	71	192	0
SI_	71	192	0	96	48	3
BRK	71	192	5
BRK	71	288	0
STR	71	288	7
SCL	71	288	7	96	48	4
TAP	72	0	0
BRK	72	0	7
TAP	72	24	1
TAP	72	48	2
TAP	72	72	3
TAP	72	144	2
TAP	72	168	1
TAP	72	192	0
TAP	72	216	7
TAP	72	288	2
TAP	72	312	3
TAP	72	336	4
TAP	72	360	5
HLD	73	0	6	72
TAP	73	72	7
TAP	73	120	4
TAP	73	120	6
TAP	73	168	3
TAP	73	216	2
TAP	73	240	4
TAP	73	264	6
BRK	73	288	0
STR	74	0	7
SCR	74	0	7	96	48	2
TAP	74	192	3
TAP	74	208	4
TAP	74	224	3
TAP	74	240	4
TAP	74	256	3
TAP	74	272	4
TAP	74	288	2
TAP	74	304	3
TAP	74	320	2
TAP	74	336	3
TAP	74	352	2
TAP	74	368	3
TAP	75	0	2
BRK	75	96	0
BRK	75	96	5

T_REC_TAP	473
T_REC_BRK	42
T_REC_XTP	0
T_REC_HLD	45
T_REC_XHO	0
T_REC_STR	60
T_REC_BST	0
T_REC_XST	0
T_REC_TTP	0
T_REC_THO	0
T_REC_SLD	60
T_REC_ALL	680
T_NUM_TAP	533
T_NUM_BRK	42
T_NUM_HLD	45
T_NUM_SLD	60
T_NUM_ALL	680
T_JUDGE_TAP	575
T_JUDGE_HLD	95
T_JUDGE_SLD	60
T_JUDGE_ALL	730
TTM_EACHPAIRS	52
TTM_SCR_TAP	266500
TTM_SCR_BRK	109200
TTM_SCR_HLD	45000
TTM_SCR_SLD	90000
TTM_SCR_ALL	510700
TTM_SCR_S	491350
TTM_SCR_SS	506500
TTM_RAT_ACV	10082

