VERSION	0.00.00	1.03.00
FES_MODE	0
BPM_DEF	150.000	150.000	150.000	150.000
MET_DEF	4	4
RESOLUTION	384
CLK_DEF	384
COMPATIBLE_CODE	MA2

BPM	0	0	150.000
MET	0	0	4	4

TAP	1	240	2
TAP	1	264	2
TAP	1	288	6
TAP	2	0	1
TAP	2	72	1
TAP	2	96	2
TAP	2	168	2
TAP	2	192	3
TAP	2	240	4
TAP	2	288	2
TAP	2	312	2
TAP	3	0	5
TAP	3	96	2
TAP	3	168	7
TAP	3	192	0
TAP	3	240	2
TAP	3	288	0
TAP	3	312	0
TAP	4	0	6
TAP	4	72	6
TAP	4	96	5
TAP	4	168	5
TAP	4	192	4
TAP	4	240	3
TAP	4	288	5
TAP	4	312	5
TAP	5	0	0
TAP	5	48	1
TAP	5	96	3
TAP	5	144	4
TAP	5	192	6
TAP	5	240	7
TAP	5	288	1
TAP	5	336	0
TAP	6	0	6
TAP	6	72	6
TAP	6	96	5
TAP	6	168	5
TAP	6	192	4
TAP	6	240	3
TAP	6	288	5
TAP	6	312	5
TAP	7	0	2
TAP	7	96	5
TAP	7	168	0
TAP	7	192	7
TAP	7	240	5
TAP	7	288	7
TAP	7	312	7
TAP	8	0	1
TAP	8	72	1
TAP	8	96	2
TAP	8	168	2
TAP	8	192	3
TAP	8	240	4
TAP	8	288	2
TAP	8	312	2
TAP	9	0	7
TAP	9	48	6
TAP	9	96	4
TAP	9	144	3
TAP	9	192	1
TAP	9	240	0
TAP	9	288	6
TAP	9	336	7
TAP	10	0	0
TAP	10	72	0
TAP	10	96	1
TAP	10	144	1
TAP	10	192	0
TAP	10	264	0
TAP	10	288	1
TAP	10	336	1
TAP	11	0	4
TAP	11	72	4
TAP	11	96	5
TAP	11	144	5
TAP	11	192	4
TAP	11	240	2
TAP	11	288	1
TAP	11	336	0
TAP	12	0	7
TAP	12	72	7
TAP	12	96	6
TAP	12	144	6
TAP	12	192	7
TAP	12	264	7
TAP	12	288	6
TAP	12	336	6
TAP	13	0	3
TAP	13	72	3
TAP	13	96	2
TAP	13	144	2
TAP	13	192	3
TAP	13	240	0
TAP	13	288	7
TAP	13	336	6
TAP	14	0	3
HLD	14	0	5	96
TAP	14	96	4
HLD	14	192	2	96
TAP	14	192	4
TAP	14	288	3
TAP	15	0	3
HLD	15	0	5	96
TAP	15	96	4
HLD	15	192	2	96
TAP	15	192	4
TAP	15	288	3
HLD	16	0	4	96
TAP	16	0	5
TAP	16	96	3
TAP	16	192	2
HLD	16	192	3	96
TAP	16	288	4
HLD	17	0	4	96
TAP	17	0	5
TAP	17	96	3
TAP	17	192	2
HLD	17	192	3	96
TAP	17	288	4
TAP	18	0	7
TAP	18	144	1
TAP	18	192	5
TAP	18	240	4
TAP	18	240	6
STR	18	336	1
SI_	18	336	1	96	144	4
STR	18	336	3
SI_	18	336	3	96	144	6
TAP	20	0	3
TAP	20	144	5
TAP	20	192	1
TAP	20	240	0
TAP	20	240	2
STR	20	336	5
SI_	20	336	5	96	144	0
STR	20	336	7
SI_	20	336	7	96	144	2
TAP	21	288	4
HLD	21	336	3	144
TAP	22	0	2
HLD	22	96	5	96
HLD	22	192	2	96
HLD	22	288	3	192
TAP	23	0	5
HLD	23	96	2	96
HLD	23	192	5	96
HLD	23	288	4	192
TAP	24	0	2
HLD	24	96	5	96
HLD	24	192	2	96
HLD	24	288	3	192
TAP	25	0	5
HLD	25	96	2	96
HLD	25	192	5	96
TAP	25	288	4
TAP	26	0	1
TAP	26	48	1
TAP	26	72	2
TAP	26	120	2
STR	26	144	3
SI_	26	144	3	96	48	7
TAP	27	0	6
TAP	27	24	6
TAP	27	72	5
TAP	27	120	4
STR	27	144	4
SI_	27	144	4	96	48	0
TAP	28	0	1
TAP	28	24	0
TAP	28	72	7
TAP	28	96	0
TAP	28	144	1
TAP	28	168	0
TAP	28	216	7
TAP	28	240	0
TAP	28	288	1
TAP	28	336	6
TAP	29	0	7
TAP	29	72	5
TAP	29	120	5
TAP	29	168	1
TAP	29	216	1
TAP	29	264	4
TAP	29	288	3
TAP	29	288	4
TAP	30	0	6
TAP	30	48	6
TAP	30	72	5
TAP	30	120	5
STR	30	144	4
SI_	30	144	4	96	48	0
TAP	31	0	1
TAP	31	24	1
TAP	31	72	2
TAP	31	120	3
STR	31	144	3
SI_	31	144	3	96	48	7
TAP	32	0	6
TAP	32	24	7
TAP	32	72	0
TAP	32	96	7
TAP	32	144	6
TAP	32	168	7
TAP	32	216	0
TAP	32	240	7
TAP	32	288	6
TAP	32	336	1
TAP	33	0	0
TAP	33	72	2
TAP	33	120	2
TAP	33	168	6
TAP	33	216	6
TAP	33	264	3
TAP	33	288	3
TAP	33	288	4
TAP	34	0	2
TAP	34	48	2
TAP	34	72	1
TAP	34	120	1
STR	34	144	0
SI_	34	144	0	96	48	4
TAP	35	0	5
TAP	35	24	5
TAP	35	72	6
TAP	35	120	7
STR	35	144	7
SI_	35	144	7	96	48	3
TAP	36	0	2
TAP	36	24	3
TAP	36	72	4
TAP	36	96	3
TAP	36	144	2
TAP	36	168	3
TAP	36	216	4
TAP	36	240	3
TAP	36	288	2
TAP	36	336	5
TAP	37	0	4
TAP	37	72	6
TAP	37	120	6
TAP	37	168	2
TAP	37	216	2
TAP	37	264	7
TAP	37	288	0
TAP	37	288	7
TAP	38	0	5
TAP	38	48	5
TAP	38	72	6
TAP	38	120	6
STR	38	144	7
SI_	38	144	7	96	48	3
TAP	39	0	2
TAP	39	24	2
TAP	39	72	1
TAP	39	120	0
STR	39	144	0
SI_	39	144	0	96	48	4
TAP	40	0	5
TAP	40	24	4
TAP	40	72	3
TAP	40	96	4
TAP	40	144	5
TAP	40	168	4
TAP	40	216	3
TAP	40	240	4
TAP	40	288	5
TAP	40	336	2
TAP	41	0	3
TAP	41	72	1
TAP	41	120	1
TAP	41	168	5
TAP	41	216	5
TAP	41	264	0
TAP	41	288	0
TAP	41	288	7
TAP	42	0	7
TAP	42	24	7
TAP	42	96	4
TAP	42	144	5
TAP	42	192	1
TAP	42	240	0
TAP	42	288	3
TAP	42	312	3
TAP	43	0	7
TAP	43	24	7
TAP	43	96	6
TAP	43	144	2
HLD	43	192	3	96
TAP	44	0	0
TAP	44	24	0
TAP	44	96	3
TAP	44	144	2
TAP	44	192	6
TAP	44	240	7
TAP	44	288	4
TAP	44	312	4
TAP	45	0	0
TAP	45	24	0
TAP	45	96	1
TAP	45	144	5
HLD	45	192	4	96
BRK	45	288	3
TAP	46	0	7
TAP	46	24	7
TAP	46	96	4
TAP	46	144	0
TAP	46	192	6
TAP	46	240	2
TAP	46	288	3
TAP	46	312	3
TAP	47	0	7
TAP	47	24	7
TAP	47	96	5
TAP	47	144	1
HLD	47	192	3	96
TAP	48	0	0
TAP	48	24	0
TAP	48	96	3
TAP	48	144	7
TAP	48	192	1
TAP	48	240	5
TAP	48	288	4
TAP	48	312	4
TAP	49	0	0
TAP	49	24	0
TAP	49	96	2
TAP	49	144	6
HLD	49	192	4	96
TAP	49	288	3
TAP	50	0	1
TAP	50	72	5
TAP	50	96	4
TAP	50	144	5
TAP	50	192	1
TAP	50	264	5
TAP	50	288	4
TAP	50	336	5
TAP	51	0	6
TAP	51	72	2
TAP	51	96	3
TAP	51	144	2
TAP	51	192	6
TAP	51	240	3
TAP	51	288	1
TAP	51	336	4
TAP	52	0	0
TAP	52	72	4
TAP	52	96	5
TAP	52	144	4
TAP	52	192	0
TAP	52	264	4
TAP	52	288	5
TAP	52	336	4
TAP	53	0	7
TAP	53	72	3
TAP	53	96	2
TAP	53	144	3
TAP	53	192	7
TAP	53	240	3
TAP	53	288	0
TAP	53	336	4
HLD	54	0	3	96
TAP	54	0	5
TAP	54	96	2
TAP	54	192	2
HLD	54	192	4	96
TAP	54	288	5
HLD	55	0	3	96
TAP	55	0	5
TAP	55	96	2
TAP	55	192	2
HLD	55	192	4	96
HLD	55	288	3	96
TAP	56	0	2
HLD	56	96	4	96
TAP	56	96	5
TAP	56	192	2
TAP	56	288	2
HLD	56	288	3	96
TAP	57	0	5
HLD	57	96	4	96
TAP	57	96	5
TAP	57	192	2
TAP	57	288	2
HLD	57	288	3	96
TAP	58	0	7
TAP	58	48	7
TAP	58	72	6
TAP	58	120	6
STR	58	144	0
SI_	58	144	0	96	48	5
TAP	59	0	3
TAP	59	24	2
TAP	59	72	2
TAP	59	120	4
STR	59	144	4
SI_	59	144	4	96	48	1
TAP	60	0	6
TAP	60	24	4
TAP	60	72	2
TAP	60	96	4
TAP	60	144	6
TAP	60	168	4
TAP	60	216	2
TAP	60	240	4
TAP	60	288	6
TAP	60	336	2
TAP	61	0	0
TAP	61	48	0
TAP	61	72	2
TAP	61	120	2
TAP	61	168	4
TAP	61	216	4
TAP	61	264	6
TAP	61	288	5
TAP	61	288	6
TAP	62	0	0
TAP	62	48	0
TAP	62	72	1
TAP	62	120	1
STR	62	144	7
SI_	62	144	7	96	48	2
TAP	63	0	4
TAP	63	24	5
TAP	63	72	5
TAP	63	120	3
STR	63	144	3
SI_	63	144	3	96	48	6
TAP	64	0	1
TAP	64	24	3
TAP	64	72	5
TAP	64	96	3
TAP	64	144	1
TAP	64	168	3
TAP	64	216	5
TAP	64	240	3
TAP	64	288	1
TAP	64	336	5
TAP	65	0	7
TAP	65	48	7
TAP	65	72	5
TAP	65	120	5
TAP	65	168	3
TAP	65	216	3
TAP	65	264	1
TAP	65	288	1
TAP	65	288	2
TAP	66	0	0
TAP	66	0	1
TAP	66	48	0
TAP	66	48	7
TAP	66	72	0
TAP	66	72	7
TAP	66	120	6
TAP	66	120	7
STR	66	144	6
SCL	66	144	6	96	48	3
STR	66	144	7
SCR	66	144	7	96	48	2
TAP	67	0	6
TAP	67	0	7
TAP	67	24	6
TAP	67	24	7
TAP	67	72	0
TAP	67	72	7
TAP	67	120	0
TAP	67	120	1
STR	67	144	0
SCL	67	144	0	96	48	5
STR	67	144	1
SCR	67	144	1	96	48	4
TAP	68	0	1
TAP	68	24	3
TAP	68	72	6
TAP	68	96	4
TAP	68	144	1
TAP	68	168	3
TAP	68	216	6
TAP	68	240	4
TAP	68	288	1
TAP	68	336	6
TAP	69	0	0
TAP	69	48	0
TAP	69	72	7
TAP	69	120	6
TAP	69	168	5
TAP	69	216	7
TAP	69	240	0
TAP	69	264	1
TAP	69	288	2
TAP	70	0	6
TAP	70	0	7
TAP	70	48	0
TAP	70	48	7
TAP	70	72	0
TAP	70	72	7
TAP	70	120	0
TAP	70	120	1
STR	70	144	0
SCL	70	144	0	96	48	5
STR	70	144	1
SCR	70	144	1	96	48	4
TAP	71	0	0
TAP	71	0	1
TAP	71	24	0
TAP	71	24	1
TAP	71	72	0
TAP	71	72	7
TAP	71	120	6
TAP	71	120	7
STR	71	144	6
SCL	71	144	6	96	48	3
STR	71	144	7
SCR	71	144	7	96	48	2
TAP	72	0	6
TAP	72	24	3
TAP	72	72	1
TAP	72	96	4
TAP	72	144	6
TAP	72	168	3
TAP	72	216	1
TAP	72	240	4
TAP	72	288	6
TAP	72	336	1
TAP	73	0	7
TAP	73	48	7
TAP	73	72	0
TAP	73	120	1
TAP	73	168	2
TAP	73	216	0
TAP	73	240	7
TAP	73	264	6
TAP	73	288	6
TAP	73	312	7
TAP	73	336	0
TAP	73	360	1
TAP	74	192	0
TAP	74	224	6
TAP	74	256	4
TAP	74	288	7
TAP	74	320	1
TAP	74	352	3
STR	75	0	4
SI_	75	0	4	96	24	1
BRK	75	96	6

T_REC_TAP	462
T_REC_BRK	2
T_REC_XTP	0
T_REC_HLD	33
T_REC_XHO	0
T_REC_STR	25
T_REC_BST	0
T_REC_XST	0
T_REC_TTP	0
T_REC_THO	0
T_REC_SLD	25
T_REC_ALL	547
T_NUM_TAP	487
T_NUM_BRK	2
T_NUM_HLD	33
T_NUM_SLD	25
T_NUM_ALL	547
T_JUDGE_TAP	489
T_JUDGE_HLD	73
T_JUDGE_SLD	25
T_JUDGE_ALL	587
TTM_EACHPAIRS	46
TTM_SCR_TAP	243500
TTM_SCR_BRK	5200
TTM_SCR_HLD	33000
TTM_SCR_SLD	37500
TTM_SCR_ALL	319200
TTM_SCR_S	309450
TTM_SCR_SS	319000
TTM_RAT_ACV	10006

