VERSION	0.00.00	1.03.00
FES_MODE	0
BPM_DEF	150.000	150.000	150.000	150.000
MET_DEF	4	4
RESOLUTION	384
CLK_DEF	384
COMPATIBLE_CODE	MA2

BPM	0	0	150.000
MET	0	0	4	4

TAP	2	0	0
TAP	2	96	1
TAP	2	192	2
STR	2	288	3
SI_	2	288	3	96	192	0
TAP	4	0	7
TAP	4	96	6
TAP	4	192	5
STR	4	288	4
SI_	4	288	4	96	192	7
TAP	6	0	6
TAP	6	96	7
TAP	6	192	0
STR	6	288	1
SI_	6	288	1	96	192	6
TAP	8	0	5
TAP	8	96	4
TAP	8	192	3
STR	8	288	2
SI_	8	288	2	96	216	5
TAP	10	0	6
TAP	10	192	7
TAP	11	0	0
TAP	11	192	1
TAP	12	0	1
TAP	12	192	0
TAP	13	0	7
TAP	13	192	6
STR	14	0	0
SI_	14	0	0	96	192	5
STR	15	0	7
SI_	15	0	7	96	216	2
STR	16	0	1
SI_	16	0	1	96	216	4
STR	17	0	6
SI_	17	0	6	96	216	3
TAP	18	0	0
TAP	18	192	1
TAP	19	0	7
TAP	19	192	6
TAP	20	0	2
TAP	20	192	3
TAP	21	0	5
TAP	21	192	4
STR	22	0	1
SI_	22	0	1	96	192	6
STR	23	0	5
SI_	23	0	5	96	192	2
STR	24	0	0
SI_	24	0	0	96	192	3
STR	25	0	4
SI_	25	0	4	96	192	7
TAP	26	0	0
TAP	26	96	1
TAP	26	192	2
TAP	26	288	3
TAP	27	0	5
TAP	27	96	4
TAP	27	192	3
TAP	27	288	2
TAP	28	0	0
TAP	28	96	0
TAP	28	192	7
TAP	28	288	7
TAP	29	0	0
TAP	29	96	2
TAP	29	192	4
TAP	29	288	6
TAP	30	0	7
TAP	30	96	6
TAP	30	192	5
TAP	30	288	4
TAP	31	0	2
TAP	31	96	3
TAP	31	192	4
TAP	31	288	5
TAP	32	0	7
TAP	32	96	7
TAP	32	192	0
TAP	32	288	0
TAP	33	0	7
TAP	33	96	5
TAP	33	192	3
TAP	33	288	1
TAP	34	0	0
TAP	34	96	2
TAP	34	192	4
TAP	34	288	6
TAP	34	288	7
TAP	35	0	5
TAP	35	96	3
TAP	35	192	1
TAP	35	288	0
TAP	35	288	7
TAP	36	0	2
TAP	36	96	2
TAP	36	192	4
TAP	36	288	4
TAP	37	0	6
TAP	37	96	6
TAP	37	192	0
TAP	37	288	0
TAP	38	0	7
TAP	38	96	6
TAP	38	96	7
TAP	38	192	0
TAP	38	288	0
TAP	38	288	1
TAP	39	0	4
TAP	39	96	4
TAP	39	96	5
TAP	39	192	3
TAP	39	288	2
TAP	39	288	3
TAP	40	0	4
TAP	40	96	5
TAP	40	192	6
TAP	40	288	7
TAP	41	0	6
TAP	41	96	4
TAP	41	192	2
BRK	41	288	0
TAP	42	96	0
TAP	42	96	1
TAP	42	288	0
TAP	42	288	1
TAP	43	96	6
TAP	43	96	7
TAP	43	288	6
TAP	43	288	7
TAP	44	96	0
TAP	44	96	1
TAP	44	288	6
TAP	44	288	7
TAP	45	96	0
TAP	45	96	1
TAP	45	288	6
TAP	45	288	7
TAP	46	96	0
TAP	46	96	1
BRK	46	288	3
BRK	46	288	4
TAP	47	96	6
TAP	47	96	7
BRK	47	288	3
BRK	47	288	4
TAP	48	96	0
TAP	48	96	1
TAP	48	288	2
TAP	48	288	3
TAP	49	96	4
TAP	49	96	5
BRK	49	288	6
BRK	49	288	7
TAP	50	0	0
TAP	50	192	2
TAP	51	0	4
TAP	51	192	6
TAP	52	0	7
TAP	52	192	5
TAP	53	0	3
TAP	53	192	1
STR	54	0	0
SI_	54	0	0	96	192	4
STR	55	0	7
SI_	55	0	7	96	192	3
STR	56	0	1
SCR	56	0	1	96	192	4
STR	57	0	6
SCL	57	0	6	96	192	3
TAP	58	0	1
TAP	58	96	0
TAP	58	96	1
TAP	58	192	2
TAP	58	288	2
TAP	58	288	3
TAP	59	0	4
TAP	59	96	4
TAP	59	96	5
TAP	59	192	3
TAP	59	288	2
TAP	59	288	3
TAP	60	0	4
TAP	60	96	4
TAP	60	96	5
TAP	60	192	6
TAP	60	288	6
TAP	60	288	7
TAP	61	0	5
TAP	61	96	3
TAP	61	192	1
TAP	61	288	0
TAP	61	288	7
TAP	62	0	1
TAP	62	96	1
TAP	62	96	2
TAP	62	192	0
TAP	62	288	0
TAP	62	288	7
TAP	63	0	1
TAP	63	96	1
TAP	63	96	2
TAP	63	192	3
TAP	63	288	3
TAP	63	288	4
TAP	64	0	2
TAP	64	96	1
TAP	64	96	2
TAP	64	192	3
TAP	64	288	3
TAP	64	288	4
TAP	65	0	5
TAP	65	96	5
TAP	65	96	6
TAP	65	192	0
BRK	65	288	0
BRK	65	288	1
TAP	66	0	7
TAP	66	96	6
TAP	66	96	7
TAP	66	192	5
TAP	66	288	4
TAP	66	288	5
TAP	67	0	6
TAP	67	96	6
TAP	67	96	7
TAP	67	192	0
TAP	67	288	0
TAP	67	288	1
TAP	68	0	2
BRK	68	96	0
BRK	68	96	7
TAP	68	192	5
BRK	68	288	0
BRK	68	288	7
TAP	69	0	1
TAP	69	96	3
TAP	69	192	5
TAP	69	288	6
TAP	69	288	7
TAP	70	0	5
TAP	70	96	3
TAP	70	96	4
TAP	70	192	2
TAP	70	288	0
TAP	70	288	1
TAP	71	0	2
TAP	71	96	3
TAP	71	96	4
TAP	71	192	5
TAP	71	288	6
TAP	71	288	7
TAP	72	0	3
TAP	72	0	4
TAP	72	96	0
TAP	72	96	1
TAP	72	192	3
TAP	72	192	4
TAP	72	288	6
TAP	72	288	7
TAP	73	0	2
TAP	73	0	3
TAP	73	96	4
TAP	73	96	5
TAP	73	192	2
TAP	73	192	3
TAP	73	288	0
TAP	73	288	1
HLD	74	0	6	384
HLD	74	0	7	384
BRK	75	96	1
BRK	75	96	6

T_REC_TAP	223
T_REC_BRK	15
T_REC_XTP	0
T_REC_HLD	2
T_REC_XHO	0
T_REC_STR	16
T_REC_BST	0
T_REC_XST	0
T_REC_TTP	0
T_REC_THO	0
T_REC_SLD	16
T_REC_ALL	272
T_NUM_TAP	239
T_NUM_BRK	15
T_NUM_HLD	2
T_NUM_SLD	16
T_NUM_ALL	272
T_JUDGE_TAP	254
T_JUDGE_HLD	16
T_JUDGE_SLD	16
T_JUDGE_ALL	286
TTM_EACHPAIRS	58
TTM_SCR_TAP	119500
TTM_SCR_BRK	39000
TTM_SCR_HLD	2000
TTM_SCR_SLD	24000
TTM_SCR_ALL	184500
TTM_SCR_S	177550
TTM_SCR_SS	183000
TTM_RAT_ACV	10081

