VERSION	0.00.00	1.03.00
FES_MODE	0
BPM_DEF	150.000	150.000	150.000	150.000
MET_DEF	4	4
RESOLUTION	384
CLK_DEF	384
COMPATIBLE_CODE	MA2

BPM	0	0	150.000
MET	0	0	4	4

TAP	2	0	6
TAP	2	192	6
TAP	3	0	7
TAP	3	192	7
TAP	4	0	0
TAP	4	192	0
TAP	5	0	1
TAP	5	192	1
TAP	6	0	1
TAP	6	192	1
TAP	7	0	0
TAP	7	192	0
TAP	8	0	7
TAP	8	192	7
TAP	9	0	6
BRK	9	192	6
HLD	10	0	5	192
HLD	11	0	4	192
HLD	12	0	3	192
HLD	13	0	2	192
HLD	14	0	2	192
HLD	15	0	3	192
HLD	16	0	4	192
HLD	17	0	5	192
TAP	18	0	5
TAP	18	192	5
TAP	19	0	4
TAP	19	0	5
TAP	20	0	2
TAP	20	192	2
TAP	21	0	2
TAP	21	0	3
TAP	22	0	5
TAP	22	192	4
TAP	23	0	4
TAP	23	0	5
TAP	24	0	2
TAP	24	192	3
TAP	25	0	2
TAP	25	0	3
TAP	26	0	1
TAP	26	96	1
TAP	27	0	0
TAP	27	96	0
TAP	28	0	7
TAP	28	96	7
HLD	29	0	6	192
TAP	30	0	6
TAP	30	96	6
TAP	31	0	7
TAP	31	96	7
TAP	32	0	0
TAP	32	96	0
HLD	33	0	1	192
TAP	34	0	2
TAP	34	192	2
TAP	34	192	3
TAP	35	0	3
TAP	35	192	3
TAP	35	192	4
STR	36	0	5
SI_	36	0	5	96	192	1
BRK	37	192	0
BRK	37	192	7
TAP	38	0	5
TAP	38	192	4
TAP	38	192	5
TAP	39	0	4
TAP	39	192	3
TAP	39	192	4
STR	40	0	2
SI_	40	0	2	96	192	6
BRK	41	192	0
BRK	41	192	7
HLD	42	0	1	96
TAP	42	192	1
HLD	43	0	0	96
TAP	43	192	0
HLD	44	0	7	96
TAP	44	192	7
HLD	45	0	6	96
TAP	45	192	6
HLD	46	0	6	96
TAP	46	192	6
TAP	46	192	7
HLD	47	0	0	96
TAP	47	192	0
TAP	47	192	7
HLD	48	0	1	96
TAP	48	192	0
TAP	48	192	1
HLD	49	0	7	96
TAP	49	192	0
TAP	49	192	7
TAP	50	96	1
TAP	50	288	1
TAP	51	96	2
TAP	51	288	2
TAP	52	96	3
TAP	52	288	3
TAP	53	96	4
TAP	53	288	4
TAP	54	96	5
TAP	54	288	4
TAP	54	288	5
TAP	55	96	4
TAP	55	288	3
TAP	55	288	4
TAP	56	96	3
STR	56	288	2
SI_	56	288	2	96	192	6
TAP	58	0	7
HLD	58	96	7	96
TAP	59	0	0
HLD	59	96	0	96
TAP	60	0	1
HLD	60	96	1	96
TAP	61	0	2
TAP	61	192	2
TAP	62	0	3
HLD	62	96	3	96
TAP	63	0	4
HLD	63	96	4	96
TAP	64	0	5
HLD	64	96	5	96
TAP	65	0	6
TAP	65	96	6
TAP	65	192	6
TAP	66	0	6
TAP	66	0	7
TAP	66	96	6
TAP	66	96	7
TAP	67	0	0
TAP	67	0	1
TAP	67	96	0
TAP	67	96	1
TAP	68	0	0
TAP	68	0	7
TAP	68	96	0
TAP	68	96	7
HLD	69	0	0	192
HLD	69	0	7	192
TAP	70	0	6
TAP	70	0	7
HLD	70	96	6	96
HLD	70	96	7	96
TAP	71	0	0
TAP	71	0	1
HLD	71	96	0	96
HLD	71	96	1	96
TAP	72	0	0
TAP	72	0	7
HLD	72	96	0	96
HLD	72	96	7	96
HLD	73	0	1	192
HLD	73	0	6	192
TAP	74	0	0
TAP	74	192	7
TAP	75	0	0
TAP	75	0	7
BRK	75	96	0
BRK	75	96	7

T_REC_TAP	115
T_REC_BRK	7
T_REC_XTP	0
T_REC_HLD	34
T_REC_XHO	0
T_REC_STR	3
T_REC_BST	0
T_REC_XST	0
T_REC_TTP	0
T_REC_THO	0
T_REC_SLD	3
T_REC_ALL	162
T_NUM_TAP	118
T_NUM_BRK	7
T_NUM_HLD	34
T_NUM_SLD	3
T_NUM_ALL	162
T_JUDGE_TAP	125
T_JUDGE_HLD	96
T_JUDGE_SLD	3
T_JUDGE_ALL	224
TTM_EACHPAIRS	32
TTM_SCR_TAP	59000
TTM_SCR_BRK	18200
TTM_SCR_HLD	34000
TTM_SCR_SLD	4500
TTM_SCR_ALL	115700
TTM_SCR_S	111550
TTM_SCR_SS	115000
TTM_RAT_ACV	10060

