VERSION	0.00.00	1.03.00
FES_MODE	0
BPM_DEF	170.000	170.000	170.000	170.000
MET_DEF	4	4
RESOLUTION	384
CLK_DEF	384
COMPATIBLE_CODE	MA2

BPM	0	0	170.000
MET	0	0	4	4

HLD	1	0	1	192
STR	1	0	2
SI_	1	0	2	96	96	7
STR	2	0	5
SI_	2	0	5	96	96	0
HLD	2	0	6	192
HLD	3	0	0	96
HLD	3	96	2	96
HLD	3	192	4	96
TAP	3	288	6
BRK	4	0	0
BRK	4	0	7
STR	5	0	2
SI_	5	0	2	96	96	7
STR	6	0	6
SI_	6	0	6	96	96	3
HLD	7	0	4	96
HLD	7	96	0	96
HLD	7	192	1	96
HLD	7	288	3	96
HLD	8	0	7	96
HLD	8	96	6	96
HLD	8	192	4	96
HLD	8	288	2	96
STR	9	0	5
SI_	9	0	5	96	96	0
TAP	9	288	1
STR	10	0	1
SI_	10	0	1	96	96	4
TAP	10	288	6
STR	11	0	0
SCR	11	0	0	96	48	3
STR	11	192	4
SCR	11	192	4	96	48	7
TAP	12	0	0
TAP	12	48	7
TAP	12	96	0
TAP	12	144	1
TAP	12	144	6
HLD	13	0	0	288
TAP	13	96	7
TAP	13	192	2
TAP	13	288	7
TAP	14	0	1
TAP	14	0	7
STR	14	48	1
SI_	14	48	1	96	48	4
STR	14	48	7
SI_	14	48	7	96	48	4
HLD	15	0	7	288
TAP	15	96	0
TAP	15	192	5
TAP	15	288	0
TAP	16	0	0
TAP	16	0	6
STR	16	48	0
SI_	16	48	0	96	48	3
STR	16	48	6
SI_	16	48	6	96	48	3
TAP	16	240	2
TAP	16	336	1
HLD	17	0	0	144
TAP	17	144	5
HLD	17	192	5	144
TAP	17	336	3
TAP	18	0	2
TAP	18	0	3
HLD	18	192	4	96
HLD	18	288	5	96
HLD	19	0	7	96
HLD	19	96	2	96
HLD	19	192	1	96
HLD	19	288	0	96
HLD	20	0	5	144
HLD	20	144	0	144
HLD	20	192	2	96
TAP	21	0	0
TAP	21	0	2
TAP	21	48	1
TAP	21	144	1
TAP	21	192	0
TAP	21	192	3
TAP	21	240	2
TAP	21	336	2
TAP	22	0	0
TAP	22	0	4
STR	22	48	0
SCL	22	48	0	96	48	5
STR	22	48	4
SCL	22	48	4	96	48	1
TAP	23	0	5
TAP	23	0	7
TAP	23	48	6
TAP	23	144	6
TAP	23	192	4
TAP	23	192	7
TAP	23	240	5
TAP	23	336	5
TAP	24	0	3
TAP	24	0	7
STR	24	48	3
SCR	24	48	3	96	48	6
STR	24	48	7
SCR	24	48	7	96	48	2
TAP	24	240	2
TAP	24	240	7
TAP	24	336	0
TAP	24	336	5
STR	25	0	7
SI_	25	0	7	96	48	2
TAP	25	144	1
STR	25	192	1
SI_	25	192	1	96	48	4
TAP	25	336	6
TAP	26	0	2
TAP	26	0	6
HLD	26	192	3	96
HLD	26	288	2	96
HLD	27	0	7	96
HLD	27	96	5	96
HLD	27	192	1	96
HLD	27	288	0	96
HLD	28	0	3	144
HLD	28	144	7	144
HLD	28	192	5	96
STR	29	0	0
SI_	29	0	0	96	96	4
TAP	29	96	0
TAP	30	0	5
TAP	30	48	6
HLD	30	144	7	144
STR	31	0	7
SI_	31	0	7	96	96	3
TAP	31	96	7
TAP	32	0	2
TAP	32	0	3
TAP	32	48	1
TAP	32	48	3
HLD	32	144	0	144
HLD	32	144	2	144
HLD	33	0	1	192
TAP	33	144	2
TAP	33	192	2
HLD	34	0	6	192
TAP	34	144	5
TAP	34	192	5
TAP	34	288	7
TAP	35	0	0
TAP	35	24	1
TAP	35	48	2
TAP	35	72	3
TAP	35	96	4
TAP	35	120	5
TAP	35	144	6
TAP	35	168	7
TAP	35	192	0
TAP	35	216	1
TAP	35	240	2
TAP	35	264	3
TAP	35	288	4
TAP	35	312	5
TAP	35	336	6
TAP	35	360	7
BRK	36	0	0
HLD	36	192	0	96
HLD	36	288	1	96
HLD	37	0	2	144
TAP	37	96	3
STR	37	144	3
SI_	37	144	3	96	48	7
HLD	38	0	6	144
TAP	38	96	5
STR	38	144	5
SI_	38	144	5	96	48	0
TAP	38	240	7
TAP	38	336	7
STR	39	0	7
SCL	39	0	7	96	96	4
STR	39	96	4
SCL	39	96	4	96	96	1
STR	39	192	1
SCL	39	192	1	96	96	6
STR	39	288	6
SCL	39	288	6	96	96	3
TAP	40	0	3
TAP	40	96	0
TAP	40	192	1
TAP	40	288	2
HLD	41	0	3	192
TAP	41	96	5
HLD	41	192	6	192
TAP	41	288	1
HLD	42	0	0	192
TAP	42	96	7
TAP	42	192	1
TAP	42	240	5
STR	42	336	1
SCR	42	336	1	96	144	4
STR	42	336	5
SCR	42	336	5	96	144	0
STR	44	0	1
SI_	44	0	1	96	48	5
STR	44	144	6
SI_	44	144	6	96	48	3
STR	44	240	0
SI_	44	240	0	96	48	4
HLD	45	0	5	144
TAP	45	96	4
STR	45	144	4
SI_	45	144	4	96	48	0
HLD	46	0	1	144
TAP	46	96	2
STR	46	144	2
SI_	46	144	2	96	48	7
TAP	46	240	0
TAP	46	336	0
STR	47	0	0
SCR	47	0	0	96	96	3
STR	47	96	3
SCR	47	96	3	96	96	6
STR	47	192	6
SCR	47	192	6	96	96	1
STR	47	288	1
SCR	47	288	1	96	96	4
TAP	48	0	4
TAP	48	96	7
TAP	48	192	6
TAP	48	288	5
STR	49	0	4
SI_	49	0	4	96	48	0
STR	49	192	7
SI_	49	192	7	96	48	3
HLD	50	0	0	96
HLD	50	96	7	96
TAP	50	192	6
TAP	50	240	2
STR	50	336	2
SCL	50	336	2	96	144	7
STR	50	336	6
SCL	50	336	6	96	144	3
TAP	52	0	0
TAP	52	0	4
TAP	52	144	3
TAP	52	144	7
TAP	52	240	2
TAP	52	240	6
TAP	52	336	1
TAP	52	336	5
TAP	53	0	4
TAP	53	48	4
TAP	53	96	4
TAP	53	144	4
TAP	53	240	1
TAP	53	264	2
TAP	53	288	1
TAP	54	0	6
TAP	54	24	5
TAP	54	48	6
TAP	54	144	2
TAP	54	240	2
TAP	54	264	3
TAP	54	288	2
TAP	54	336	5
TAP	55	0	3
TAP	55	0	4
TAP	55	48	3
TAP	55	48	4
TAP	55	96	3
TAP	55	96	4
TAP	55	144	3
TAP	55	144	4
TAP	55	240	2
TAP	55	264	3
TAP	55	288	4
TAP	55	312	5
TAP	55	336	6
TAP	55	360	7
TAP	56	0	0
TAP	56	32	7
TAP	56	64	1
TAP	56	96	6
TAP	56	128	2
TAP	56	160	5
TAP	56	192	3
TAP	56	224	4
TAP	56	256	2
TAP	56	288	5
TAP	56	320	1
TAP	56	352	6
TAP	57	0	0
HLD	57	0	7	144
TAP	57	96	4
TAP	57	144	3
HLD	57	192	2	144
TAP	57	192	7
TAP	57	288	5
TAP	57	336	4
TAP	58	0	2
HLD	58	0	3	144
TAP	58	96	2
TAP	58	144	1
HLD	58	192	0	144
TAP	58	192	3
TAP	58	288	7
TAP	58	336	6
TAP	59	0	0
HLD	59	0	5	144
TAP	59	96	3
TAP	59	144	2
HLD	59	192	1	144
TAP	59	192	5
TAP	59	288	0
TAP	59	336	7
HLD	60	0	6	288
HLD	60	288	3	192
HLD	61	0	1	192
HLD	61	192	0	96
HLD	61	288	6	288
HLD	62	0	7	288
HLD	62	288	2	192
HLD	63	0	4	288
HLD	63	192	3	480
HLD	64	0	5	480
HLD	65	0	6	288
HLD	65	192	0	96
TAP	66	96	3
TAP	66	192	3
TAP	67	0	3
TAP	67	48	2
HLD	67	144	1	144
TAP	68	96	4
TAP	68	96	5
TAP	68	192	4
TAP	68	192	5
TAP	69	0	4
TAP	69	0	5
TAP	69	48	3
TAP	69	48	6
HLD	69	144	6	144
HLD	69	144	7	144
HLD	70	0	1	192
TAP	70	0	7
TAP	70	144	2
TAP	70	192	2
TAP	71	0	0
HLD	71	0	6	192
TAP	71	144	5
TAP	71	192	5
TAP	72	0	0
TAP	72	48	1
TAP	72	96	2
TAP	72	144	3
TAP	72	192	4
TAP	72	240	5
TAP	72	288	6
TAP	72	336	7
TAP	73	0	0
TAP	73	24	1
TAP	73	48	2
TAP	73	72	3
TAP	73	96	4
TAP	73	120	5
TAP	73	144	6
TAP	73	168	7
TAP	73	192	0
TAP	73	204	1
TAP	73	216	2
TAP	73	228	3
TAP	73	240	4
TAP	73	252	5
TAP	73	264	6
TAP	73	276	7
BRK	73	288	0
BRK	73	300	1
BRK	73	312	2
BRK	73	324	3
BRK	73	336	4
BRK	73	348	5
BRK	73	360	6
BRK	73	372	7
TAP	74	192	5
HLD	74	192	6	144
TAP	74	288	1
TAP	74	336	7
TAP	75	48	1
TAP	75	48	7
TAP	75	144	0
TAP	75	144	6
HLD	75	192	1	144
TAP	75	192	2
TAP	75	288	6
TAP	75	336	0
TAP	76	48	4
TAP	76	48	5
TAP	76	144	2
TAP	76	144	7
STR	76	192	2
SCL	76	192	2	96	96	7
STR	76	288	7
SCL	76	288	7	96	96	4
STR	77	0	4
SCL	77	0	4	96	96	1
STR	77	96	1
SCL	77	96	1	96	96	6
TAP	77	192	6
TAP	77	288	5
TAP	78	0	4
TAP	78	96	3
HLD	78	192	2	192
TAP	78	288	1
HLD	79	0	1	192
TAP	79	96	0
HLD	79	192	0	192
TAP	79	288	7
TAP	80	0	6
TAP	80	48	7
STR	80	144	4
SI_	80	144	4	96	144	1
STR	80	144	5
SI_	80	144	5	96	144	0
HLD	81	192	0	144
HLD	81	336	2	96
HLD	82	48	4	96
TAP	82	144	5
TAP	82	192	0
TAP	82	240	7
TAP	82	288	0
HLD	82	336	7	144
TAP	83	96	6
TAP	83	192	2
TAP	83	240	3
TAP	83	288	2
HLD	83	336	3	96
HLD	84	48	4	96
TAP	84	144	5
STR	84	192	5
SCR	84	192	5	96	96	0
STR	84	288	0
SCR	84	288	0	96	96	3
STR	85	0	3
SCR	85	0	3	96	96	6
STR	85	96	6
SCR	85	96	6	96	96	1
TAP	85	192	1
TAP	85	288	2
TAP	86	0	3
TAP	86	96	4
HLD	86	192	5	192
TAP	86	288	6
HLD	87	0	6	192
TAP	87	96	7
HLD	87	192	7	192
TAP	87	288	0
TAP	88	0	1
TAP	88	48	0
STR	88	144	2
SI_	88	144	2	96	144	7
STR	88	144	3
SI_	88	144	3	96	144	6
TAP	89	192	3
TAP	89	192	7
TAP	89	336	0
TAP	89	336	4
TAP	90	48	1
TAP	90	48	5
TAP	90	144	2
TAP	90	144	6
STR	90	192	3
SI_	90	192	3	96	192	0
STR	91	192	4
SI_	91	192	4	96	192	7
STR	92	0	3
SI_	92	0	3	96	192	0
STR	92	192	4
SCR	92	192	4	96	192	7
TAP	93	192	0
TAP	93	192	7
BRK	93	306	3
BRK	93	306	4
BRK	93	342	3
BRK	93	342	4
BRK	93	378	3
BRK	93	378	4
BRK	94	30	3
BRK	94	30	4

T_REC_TAP	264
T_REC_BRK	19
T_REC_XTP	0
T_REC_HLD	88
T_REC_XHO	0
T_REC_STR	57
T_REC_BST	0
T_REC_XST	0
T_REC_TTP	0
T_REC_THO	0
T_REC_SLD	57
T_REC_ALL	485
T_NUM_TAP	321
T_NUM_BRK	19
T_NUM_HLD	88
T_NUM_SLD	57
T_NUM_ALL	485
T_JUDGE_TAP	340
T_JUDGE_HLD	282
T_JUDGE_SLD	57
T_JUDGE_ALL	679
TTM_EACHPAIRS	63
TTM_SCR_TAP	160500
TTM_SCR_BRK	49400
TTM_SCR_HLD	88000
TTM_SCR_SLD	85500
TTM_SCR_ALL	383400
TTM_SCR_S	370100
TTM_SCR_SS	381500
TTM_RAT_ACV	10049

