VERSION	0.00.00	1.03.00
FES_MODE	0
BPM_DEF	170.000	170.000	170.000	170.000
MET_DEF	4	4
RESOLUTION	384
CLK_DEF	384
COMPATIBLE_CODE	MA2

BPM	0	0	170.000
MET	0	0	4	4

HLD	1	0	0	144
HLD	1	144	1	144
HLD	2	0	7	144
HLD	2	144	6	96
STR	2	240	5
SCL	2	240	5	96	144	2
BRK	4	0	0
TAP	5	0	0
TAP	5	96	1
TAP	5	192	2
TAP	5	288	3
TAP	6	0	7
TAP	6	96	6
TAP	6	192	5
TAP	6	288	4
HLD	7	0	3	96
HLD	7	96	2	96
HLD	7	192	3	96
HLD	7	288	4	96
HLD	8	0	5	96
HLD	8	96	4	96
HLD	8	192	3	96
TAP	8	288	2
TAP	9	0	1
TAP	9	96	2
TAP	9	192	3
TAP	9	288	4
TAP	9	288	5
TAP	10	0	6
TAP	10	96	5
TAP	10	192	4
TAP	10	288	2
TAP	10	288	3
HLD	11	0	7	96
HLD	11	96	6	96
HLD	11	192	7	96
HLD	11	288	0	96
HLD	12	0	1	96
HLD	12	96	0	96
BRK	12	192	7
TAP	13	0	7
TAP	13	96	6
TAP	13	192	5
TAP	14	0	2
TAP	14	48	2
TAP	14	144	3
TAP	15	0	0
TAP	15	96	1
TAP	15	192	2
TAP	16	0	5
TAP	16	48	5
TAP	16	144	4
HLD	17	0	4	192
HLD	17	192	5	192
HLD	18	0	6	192
TAP	18	192	7
TAP	18	288	6
TAP	19	0	5
TAP	19	96	4
TAP	19	192	3
TAP	19	288	2
STR	20	0	1
SI_	20	0	1	96	192	5
TAP	21	0	1
TAP	21	96	2
TAP	21	192	3
TAP	22	0	5
TAP	22	48	5
TAP	22	144	4
TAP	23	0	6
TAP	23	96	5
TAP	23	192	4
TAP	24	0	2
TAP	24	48	2
TAP	24	144	3
HLD	25	0	3	192
HLD	25	192	2	192
HLD	26	0	1	192
TAP	26	192	0
TAP	26	288	1
TAP	27	0	2
TAP	27	96	3
TAP	27	192	4
TAP	27	288	5
STR	28	0	6
SI_	28	0	6	96	192	2
HLD	29	0	1	192
TAP	29	192	3
HLD	30	0	6	192
TAP	30	192	5
HLD	31	0	0	192
TAP	31	192	2
HLD	32	0	7	192
TAP	32	192	5
TAP	33	0	7
TAP	33	96	6
TAP	33	192	5
TAP	33	288	3
TAP	33	288	4
TAP	34	0	2
TAP	34	96	1
TAP	34	192	0
TAP	34	288	6
TAP	34	288	7
HLD	35	0	0	288
HLD	35	192	7	96
BRK	36	0	1
BRK	36	0	6
TAP	37	0	7
TAP	37	96	7
TAP	37	192	0
TAP	37	288	0
TAP	38	0	1
TAP	38	96	1
TAP	38	192	2
TAP	38	288	2
HLD	39	0	3	672
TAP	39	96	2
TAP	39	192	1
TAP	39	288	0
TAP	40	0	7
TAP	40	96	6
TAP	40	192	5
TAP	40	288	4
TAP	41	0	0
TAP	41	96	0
TAP	41	192	7
TAP	41	288	7
TAP	42	0	6
TAP	42	96	6
TAP	42	192	5
TAP	42	288	5
HLD	43	0	4	288
TAP	43	96	5
TAP	43	192	6
TAP	43	288	7
STR	44	0	0
SCR	44	0	0	96	192	3
TAP	45	0	3
TAP	45	96	3
TAP	45	192	4
TAP	45	288	4
TAP	46	0	5
TAP	46	96	5
TAP	46	192	6
TAP	46	288	6
HLD	47	0	7	672
TAP	47	96	6
TAP	47	192	5
TAP	47	288	4
TAP	48	0	3
TAP	48	96	2
TAP	48	192	1
TAP	48	288	0
TAP	49	0	4
TAP	49	96	4
TAP	49	192	3
TAP	49	288	3
TAP	50	0	2
TAP	50	96	2
TAP	50	192	1
TAP	50	288	1
HLD	51	0	0	384
TAP	51	96	1
TAP	51	192	2
TAP	51	288	3
STR	52	0	4
SCR	52	0	4	96	192	7
TAP	53	0	7
TAP	53	48	7
TAP	53	96	6
TAP	53	144	6
TAP	53	240	6
TAP	54	0	5
TAP	54	144	4
TAP	54	288	3
TAP	55	0	0
TAP	55	48	0
TAP	55	96	1
TAP	55	144	1
TAP	55	288	2
TAP	56	0	3
TAP	56	96	4
TAP	56	192	5
TAP	56	288	4
HLD	57	0	3	192
TAP	57	96	2
HLD	57	192	4	192
TAP	57	288	5
HLD	58	0	3	192
TAP	58	96	2
HLD	58	192	4	192
TAP	58	288	5
HLD	59	0	3	192
TAP	59	96	2
HLD	59	192	4	96
TAP	59	288	5
HLD	60	0	5	288
STR	60	0	6
SI_	60	0	6	96	192	1
STR	61	0	1
SI_	61	0	1	96	192	6
HLD	61	0	2	288
HLD	62	0	1	288
STR	62	0	5
SCL	62	0	5	96	192	2
STR	63	0	2
SCR	63	0	2	96	192	5
HLD	63	0	6	288
HLD	64	0	0	288
STR	64	0	6
SCL	64	0	6	96	192	3
STR	65	0	1
SCR	65	0	1	96	192	4
HLD	65	0	7	288
TAP	66	96	7
HLD	66	192	7	192
TAP	67	0	6
STR	67	144	6
SCL	67	144	6	96	192	3
TAP	68	96	0
HLD	68	192	0	192
TAP	69	0	1
STR	69	144	1
SCR	69	144	1	96	192	4
HLD	70	0	5	192
TAP	70	192	6
HLD	71	0	7	192
TAP	71	192	0
TAP	71	288	0
HLD	72	0	0	240
TAP	72	240	1
TAP	72	288	1
BRK	73	0	1
HLD	73	192	6	192
HLD	73	288	1	96
TAP	74	192	7
TAP	74	288	7
HLD	74	336	7	240
TAP	75	192	1
TAP	75	288	2
TAP	75	336	2
STR	76	48	3
SI_	76	48	3	96	192	7
TAP	77	288	0
TAP	78	0	2
TAP	78	96	4
TAP	78	192	6
TAP	78	288	7
TAP	79	0	5
TAP	79	96	3
TAP	79	192	1
TAP	79	288	0
TAP	80	0	0
STR	80	48	0
SI_	80	48	0	96	192	4
HLD	81	192	5	144
TAP	81	336	4
TAP	82	48	4
TAP	82	144	3
TAP	82	192	3
TAP	82	288	2
HLD	82	336	2	240
TAP	83	192	1
TAP	83	288	1
TAP	83	336	1
STR	84	48	7
SI_	84	48	7	96	192	3
TAP	85	288	0
TAP	86	0	7
TAP	86	96	6
HLD	86	192	5	96
HLD	86	288	4	96
HLD	87	0	3	96
HLD	87	96	2	96
TAP	87	192	1
TAP	87	288	0
TAP	88	0	0
STR	88	48	0
SI_	88	48	0	96	192	4
HLD	89	192	6	144
HLD	89	336	5	96
HLD	90	48	4	144
HLD	90	192	3	384
HLD	91	192	2	192
HLD	92	0	1	192
HLD	92	192	0	192
TAP	93	0	7
BRK	93	192	1
BRK	93	192	6
TAP	93	306	0
TAP	93	342	7
TAP	93	378	0
TAP	94	30	7

T_REC_TAP	187
T_REC_BRK	7
T_REC_XTP	0
T_REC_HLD	66
T_REC_XHO	0
T_REC_STR	17
T_REC_BST	0
T_REC_XST	0
T_REC_TTP	0
T_REC_THO	0
T_REC_SLD	17
T_REC_ALL	294
T_NUM_TAP	204
T_NUM_BRK	7
T_NUM_HLD	66
T_NUM_SLD	17
T_NUM_ALL	294
T_JUDGE_TAP	211
T_JUDGE_HLD	261
T_JUDGE_SLD	17
T_JUDGE_ALL	489
TTM_EACHPAIRS	12
TTM_SCR_TAP	102000
TTM_SCR_BRK	18200
TTM_SCR_HLD	66000
TTM_SCR_SLD	25500
TTM_SCR_ALL	211700
TTM_SCR_S	204700
TTM_SCR_SS	211000
TTM_RAT_ACV	10033

