VERSION	0.00.00	1.03.00
FES_MODE	0
BPM_DEF	170.000	170.000	170.000	170.000
MET_DEF	4	4
RESOLUTION	384
CLK_DEF	384
COMPATIBLE_CODE	MA2

BPM	0	0	170.000
MET	0	0	4	4

STR	3	0	3
SI_	3	0	3	96	312	0
STR	3	0	4
SI_	3	0	4	96	312	7
TAP	5	0	7
TAP	6	0	0
TAP	7	0	6
TAP	7	192	7
TAP	8	0	0
TAP	8	192	1
TAP	9	0	7
TAP	9	192	6
TAP	10	0	0
TAP	10	192	1
STR	11	0	2
SI_	11	0	2	96	216	5
TAP	13	96	6
TAP	13	288	0
TAP	14	96	1
TAP	14	288	7
TAP	15	96	6
TAP	15	288	0
TAP	16	96	1
TAP	16	288	7
TAP	17	96	5
TAP	17	288	3
TAP	18	96	2
TAP	18	288	4
TAP	19	96	5
TAP	19	288	3
TAP	20	96	2
TAP	20	288	4
TAP	21	96	6
TAP	21	288	0
TAP	22	96	1
TAP	22	288	7
TAP	23	96	6
TAP	23	288	0
TAP	24	96	1
TAP	24	288	7
TAP	25	96	5
TAP	25	288	3
TAP	26	96	4
TAP	26	288	4
TAP	27	0	3
TAP	27	192	2
TAP	27	288	1
TAP	28	0	0
TAP	28	0	1
TAP	28	192	0
TAP	28	192	7
TAP	29	96	7
TAP	29	192	6
TAP	30	0	6
TAP	30	0	7
TAP	31	96	1
TAP	31	192	0
TAP	32	0	0
TAP	32	0	1
TAP	33	0	0
TAP	33	192	1
TAP	34	0	2
TAP	34	192	3
STR	35	0	3
SI_	35	0	3	96	312	0
STR	35	0	4
SI_	35	0	4	96	312	7
TAP	37	0	6
TAP	37	96	7
TAP	37	144	7
TAP	38	0	1
TAP	38	96	0
TAP	38	144	0
TAP	38	240	2
STR	38	336	3
SCL	38	336	3	96	264	0
TAP	40	96	7
TAP	40	192	6
TAP	40	288	5
TAP	41	0	4
TAP	41	0	5
TAP	41	192	2
TAP	41	192	3
TAP	42	0	0
TAP	42	96	0
TAP	42	192	1
TAP	42	240	1
STR	42	336	2
SI_	42	336	2	96	264	5
TAP	45	0	2
TAP	45	96	3
TAP	45	144	3
TAP	46	0	4
TAP	46	96	5
TAP	46	144	5
TAP	46	240	6
STR	46	336	7
SCL	46	336	7	96	264	4
TAP	48	96	0
TAP	48	192	1
TAP	48	288	2
TAP	49	0	2
TAP	49	0	3
TAP	49	192	3
TAP	49	192	4
TAP	50	0	4
TAP	50	96	5
TAP	50	192	6
TAP	50	240	6
STR	50	336	0
SI_	50	336	0	96	264	3
TAP	53	0	4
TAP	53	0	5
TAP	53	96	4
TAP	53	96	5
TAP	55	0	2
TAP	55	0	3
TAP	55	96	2
TAP	55	96	3
STR	57	0	2
SI_	57	0	2	96	120	5
STR	57	192	6
SI_	57	192	6	96	120	1
STR	58	0	2
SI_	58	0	2	96	120	5
STR	58	192	6
SI_	58	192	6	96	120	1
STR	59	0	2
SI_	59	0	2	96	120	5
STR	59	192	6
SI_	59	192	6	96	120	1
TAP	60	288	2
HLD	61	0	3	192
TAP	61	288	4
HLD	62	0	5	192
TAP	62	288	6
HLD	63	0	7	192
TAP	63	288	0
HLD	64	0	1	192
TAP	64	288	2
HLD	65	0	3	192
TAP	65	288	4
TAP	66	96	5
TAP	66	96	6
TAP	66	192	5
TAP	66	192	6
TAP	67	0	7
TAP	67	192	0
TAP	68	96	1
TAP	68	96	2
TAP	68	192	1
TAP	68	192	2
TAP	69	0	3
TAP	69	192	4
TAP	70	0	2
TAP	70	192	0
TAP	71	0	6
TAP	71	192	4
TAP	72	0	2
TAP	72	192	0
TAP	73	0	6
TAP	73	192	6
TAP	73	192	7
TAP	74	192	4
TAP	74	192	5
TAP	74	288	6
TAP	74	336	6
TAP	75	192	4
TAP	75	192	5
TAP	75	288	6
TAP	75	336	6
TAP	76	48	5
STR	76	144	4
SCR	76	144	4	96	264	7
TAP	77	288	0
TAP	78	0	1
TAP	78	96	2
TAP	78	192	0
TAP	78	192	1
TAP	79	0	0
TAP	79	0	7
TAP	79	192	0
TAP	79	192	1
TAP	80	0	7
TAP	80	48	7
STR	80	144	5
SI_	80	144	5	96	264	2
TAP	82	192	2
TAP	82	192	3
TAP	82	288	1
TAP	82	336	1
TAP	83	192	2
TAP	83	192	3
TAP	83	288	1
TAP	83	336	1
TAP	84	48	3
STR	84	144	4
SCR	84	144	4	96	264	7
TAP	85	288	0
TAP	86	0	1
TAP	86	96	2
TAP	86	192	0
TAP	86	192	1
TAP	87	0	1
TAP	87	0	2
TAP	87	192	0
TAP	87	192	1
TAP	88	0	2
TAP	88	48	2
STR	88	144	3
SI_	88	144	3	96	264	0
HLD	90	192	7	192
HLD	91	192	0	192
TAP	92	192	1
TAP	92	192	6
BRK	94	0	0
BRK	94	0	7

T_REC_TAP	170
T_REC_BRK	2
T_REC_XTP	0
T_REC_HLD	7
T_REC_XHO	0
T_REC_STR	19
T_REC_BST	0
T_REC_XST	0
T_REC_TTP	0
T_REC_THO	0
T_REC_SLD	19
T_REC_ALL	217
T_NUM_TAP	189
T_NUM_BRK	2
T_NUM_HLD	7
T_NUM_SLD	19
T_NUM_ALL	217
T_JUDGE_TAP	191
T_JUDGE_HLD	28
T_JUDGE_SLD	19
T_JUDGE_ALL	238
TTM_EACHPAIRS	31
TTM_SCR_TAP	94500
TTM_SCR_BRK	5200
TTM_SCR_HLD	7000
TTM_SCR_SLD	28500
TTM_SCR_ALL	135200
TTM_SCR_S	130950
TTM_SCR_SS	135000
TTM_RAT_ACV	10014

