VERSION	0.00.00	1.03.00
FES_MODE	0
BPM_DEF	170.000	170.000	170.000	170.000
MET_DEF	4	4
RESOLUTION	384
CLK_DEF	384
COMPATIBLE_CODE	MA2

BPM	0	0	170.000
MET	0	0	4	4

TAP	4	0	0
TAP	4	0	7
TAP	5	0	0
TAP	6	0	1
TAP	7	0	2
TAP	8	0	3
TAP	9	0	4
TAP	10	0	5
TAP	11	0	6
BRK	12	0	7
TAP	13	0	0
TAP	13	192	0
TAP	14	0	0
TAP	15	0	7
TAP	15	192	7
TAP	16	0	7
HLD	17	0	0	192
HLD	18	0	0	192
HLD	19	0	7	192
HLD	20	0	7	192
TAP	21	0	1
TAP	21	192	1
BRK	22	0	1
TAP	23	0	6
TAP	23	192	6
BRK	24	0	6
HLD	25	0	1	192
HLD	26	0	1	192
HLD	27	0	6	192
HLD	28	0	6	192
STR	29	0	0
SI_	29	0	0	96	288	3
STR	31	0	7
SI_	31	0	7	96	288	4
TAP	33	0	3
TAP	33	192	2
TAP	34	0	1
TAP	34	192	0
TAP	35	0	7
TAP	35	192	6
TAP	36	0	4
TAP	36	0	5
TAP	37	0	4
TAP	37	192	4
TAP	38	0	5
TAP	38	192	5
HLD	39	0	6	384
TAP	41	0	7
TAP	41	192	7
TAP	42	0	0
TAP	42	192	0
HLD	43	0	1	384
TAP	45	0	3
TAP	45	192	3
TAP	46	0	2
TAP	46	192	2
HLD	47	0	1	384
TAP	49	0	0
TAP	49	192	0
TAP	50	0	7
TAP	50	192	7
HLD	51	0	6	384
TAP	53	0	5
TAP	54	0	5
TAP	55	0	6
TAP	56	0	6
TAP	57	0	7
TAP	57	192	6
TAP	58	0	5
TAP	58	192	4
TAP	59	0	3
TAP	59	192	2
HLD	60	0	1	384
HLD	62	0	6	384
HLD	64	0	1	384
TAP	66	0	0
TAP	66	192	0
BRK	67	0	0
TAP	68	0	7
TAP	68	192	7
BRK	69	0	7
HLD	70	0	0	192
HLD	71	0	7	192
TAP	72	0	0
TAP	72	192	7
HLD	73	0	0	384
HLD	73	0	7	384
TAP	74	192	0
TAP	75	0	1
TAP	75	192	2
TAP	76	0	3
HLD	76	192	4	192
HLD	77	192	5	192
TAP	78	192	6
TAP	79	0	6
TAP	79	192	7
TAP	80	0	7
STR	80	192	0
SI_	80	192	0	96	288	4
TAP	82	192	7
TAP	83	0	6
TAP	83	192	5
TAP	84	0	4
HLD	84	192	3	192
HLD	85	192	2	192
TAP	86	192	1
TAP	87	0	1
TAP	87	192	0
TAP	88	0	0
STR	88	192	7
SI_	88	192	7	96	288	3
TAP	90	192	4
TAP	91	192	3
TAP	92	192	2
TAP	93	0	1
TAP	93	192	0
TAP	94	0	0
TAP	94	0	7

T_REC_TAP	82
T_REC_BRK	5
T_REC_XTP	0
T_REC_HLD	23
T_REC_XHO	0
T_REC_STR	4
T_REC_BST	0
T_REC_XST	0
T_REC_TTP	0
T_REC_THO	0
T_REC_SLD	4
T_REC_ALL	118
T_NUM_TAP	86
T_NUM_BRK	5
T_NUM_HLD	23
T_NUM_SLD	4
T_NUM_ALL	118
T_JUDGE_TAP	91
T_JUDGE_HLD	128
T_JUDGE_SLD	4
T_JUDGE_ALL	223
TTM_EACHPAIRS	4
TTM_SCR_TAP	43000
TTM_SCR_BRK	13000
TTM_SCR_HLD	23000
TTM_SCR_SLD	6000
TTM_SCR_ALL	85000
TTM_SCR_S	82000
TTM_SCR_SS	84500
TTM_RAT_ACV	10059

