VERSION	0.00.00	1.03.00
FES_MODE	0
BPM_DEF	174.000	174.000	174.000	174.000
MET_DEF	4	4
RESOLUTION	384
CLK_DEF	384
COMPATIBLE_CODE	MA2

BPM	0	0	174.000
MET	0	0	4	4

STR	2	0	6
SI_	2	0	6	96	48	1
STR	2	192	0
SI_	2	192	0	96	48	3
STR	3	0	2
SI_	3	0	2	96	192	5
STR	4	0	0
SI_	4	0	0	96	48	5
STR	4	192	5
SI_	4	192	5	96	48	2
STR	5	0	0
SI_	5	0	0	96	192	3
HLD	6	0	6	288
STR	6	96	0
SI_	6	96	0	96	96	4
STR	7	0	5
SI_	7	0	5	96	144	2
STR	7	0	6
SI_	7	0	6	96	144	1
STR	8	0	2
SCL	8	0	2	96	144	7
STR	8	0	6
SCL	8	0	6	96	144	3
BRK	9	0	1
HLD	9	0	6	192
STR	9	192	4
SI_	9	192	4	96	48	0
TAP	10	0	2
STR	10	0	3
SCR	10	0	3	96	48	6
STR	10	192	4
SCL	10	192	4	96	48	1
STR	11	0	3
SCR	11	0	3	96	48	6
STR	11	192	4
SCL	11	192	4	96	48	1
STR	12	0	3
SCR	12	0	3	96	48	6
STR	12	192	4
SCL	12	192	4	96	48	1
STR	13	0	3
SI_	13	0	3	96	48	0
STR	13	0	4
SI_	13	0	4	96	48	7
STR	13	192	0
SCR	13	192	0	96	48	3
STR	13	192	7
SCL	13	192	7	96	48	4
HLD	14	0	3	96
STR	14	48	2
SCL	14	48	2	96	48	7
HLD	14	96	6	192
TAP	14	240	0
TAP	14	288	0
HLD	15	0	4	96
STR	15	48	5
SCR	15	48	5	96	48	0
HLD	15	96	1	192
TAP	15	240	7
TAP	15	288	7
STR	16	0	6
SCL	16	0	6	96	96	3
STR	16	96	3
SCL	16	96	3	96	96	0
STR	16	192	0
SCL	16	192	0	96	96	5
STR	16	288	5
SCL	16	288	5	96	96	2
STR	17	0	2
SI_	17	0	2	96	96	7
STR	17	48	2
SI_	17	48	2	96	48	5
BRK	17	240	2
BRK	17	240	7
BRK	17	288	2
BRK	17	288	7
TAP	18	0	0
STR	18	48	0
SI_	18	48	0	96	48	3
STR	18	144	7
SI_	18	144	7	96	48	4
STR	18	240	6
SI_	18	240	6	96	48	1
STR	18	336	2
SI_	18	336	2	96	48	5
STR	19	48	7
SI_	19	48	7	96	48	3
STR	19	144	4
SCR	19	144	4	96	48	7
STR	19	240	0
SCR	19	240	0	96	48	3
STR	19	336	7
SI_	19	336	7	96	48	4
TAP	20	48	0
TAP	20	144	3
TAP	20	144	4
TAP	20	240	1
TAP	20	288	2
TAP	20	336	5
TAP	21	0	6
STR	21	48	6
SCR	21	48	6	96	48	1
TAP	21	144	2
TAP	21	240	3
TAP	21	240	4
TAP	21	288	1
TAP	21	288	6
TAP	22	0	7
STR	22	48	7
SI_	22	48	7	96	48	4
STR	22	144	0
SI_	22	144	0	96	48	3
STR	22	240	1
SI_	22	240	1	96	48	6
STR	22	336	5
SI_	22	336	5	96	48	2
STR	23	48	0
SI_	23	48	0	96	48	4
STR	23	144	3
SCL	23	144	3	96	48	0
STR	23	240	7
SCL	23	240	7	96	48	4
STR	23	336	0
SI_	23	336	0	96	48	3
TAP	24	48	7
TAP	24	144	3
TAP	24	144	4
TAP	24	240	6
TAP	24	288	5
TAP	24	336	2
TAP	25	0	1
STR	25	48	1
SCL	25	48	1	96	48	6
TAP	25	144	5
TAP	25	240	0
TAP	25	240	7
TAP	25	288	1
TAP	25	288	6
TAP	26	0	7
STR	26	48	7
SI_	26	48	7	96	48	4
STR	26	144	0
SI_	26	144	0	96	48	5
STR	26	240	7
SI_	26	240	7	96	48	2
STR	26	336	0
SI_	26	336	0	96	48	3
STR	27	48	7
SI_	27	48	7	96	48	4
STR	27	144	0
SI_	27	144	0	96	48	5
STR	27	240	7
SI_	27	240	7	96	48	2
STR	27	336	0
SI_	27	336	0	96	48	3
STR	28	48	7
SI_	28	48	7	96	48	4
STR	28	144	0
SI_	28	144	0	96	48	5
STR	28	240	7
SI_	28	240	7	96	48	2
TAP	28	336	0
TAP	29	0	1
TAP	29	48	0
TAP	29	96	7
TAP	29	144	6
TAP	29	192	7
TAP	29	240	0
TAP	29	288	1
TAP	29	336	2
TAP	30	0	3
STR	30	48	3
SI_	30	48	3	96	48	0
STR	30	144	4
SI_	30	144	4	96	48	1
STR	30	240	3
SI_	30	240	3	96	48	6
STR	30	336	4
SI_	30	336	4	96	48	7
STR	31	48	3
SI_	31	48	3	96	48	0
STR	31	144	4
SI_	31	144	4	96	48	1
STR	31	240	3
SI_	31	240	3	96	48	6
STR	31	336	4
SI_	31	336	4	96	48	7
STR	32	48	3
SI_	32	48	3	96	48	0
TAP	32	144	4
TAP	32	240	7
TAP	32	288	6
TAP	32	336	5
TAP	33	0	1
TAP	33	0	6
TAP	33	48	1
STR	33	48	6
SCR	33	48	6	96	48	1
TAP	33	144	2
TAP	33	240	3
TAP	33	240	4
TAP	33	288	3
STR	33	288	4
SI_	33	288	4	96	144	7
TAP	34	192	3
TAP	34	216	4
TAP	34	240	3
TAP	34	264	4
STR	34	288	3
SI_	34	288	3	96	144	0
TAP	35	192	4
TAP	35	216	3
TAP	35	240	4
TAP	35	264	3
STR	35	288	4
SI_	35	288	4	96	144	7
TAP	36	192	3
TAP	36	216	4
TAP	36	240	3
TAP	36	264	4
STR	36	288	3
SI_	36	288	3	96	144	0
TAP	37	192	4
TAP	37	216	3
TAP	37	240	4
TAP	37	264	3
TAP	37	288	4
STR	38	0	2
SUR	38	0	2	96	144	4
TAP	38	144	7
STR	38	192	7
SI_	38	192	7	96	48	3
BRK	38	288	7
STR	39	0	5
SUL	39	0	5	96	144	3
TAP	39	144	0
STR	39	192	0
SI_	39	192	0	96	48	4
BRK	39	288	0
STR	40	0	6
SI_	40	0	6	96	48	2
TAP	40	48	6
STR	40	96	7
SI_	40	96	7	96	48	3
TAP	40	144	7
STR	40	192	0
SI_	40	192	0	96	48	4
TAP	40	240	0
STR	40	288	1
SI_	40	288	1	96	48	5
TAP	40	336	1
BRK	41	0	7
STR	41	288	7
SI_	41	288	7	96	48	4
STR	42	0	0
SI_	42	0	0	96	24	4
BRK	42	0	7
BRK	42	96	0
STR	42	96	6
SI_	42	96	6	96	48	2
BRK	42	192	6
STR	42	192	7
SI_	42	192	7	96	48	3
STR	42	288	4
SI_	42	288	4	96	48	7
BRK	42	288	7
STR	43	0	3
SI_	43	0	3	96	48	7
BRK	43	0	4
BRK	43	96	3
STR	43	96	5
SI_	43	96	5	96	48	1
STR	43	192	0
SI_	43	192	0	96	48	3
BRK	43	192	5
BRK	43	288	0
STR	43	288	7
SCL	43	288	7	96	48	4
TAP	44	0	0
BRK	44	0	7
TAP	44	96	3
TAP	44	96	4
TAP	44	192	2
TAP	44	192	6
STR	44	240	2
SXR	44	240	2	96	144	7
STR	44	240	6
SXR	44	240	6	96	144	3
BRK	45	144	0
BRK	45	144	4
TAP	45	240	0
TAP	45	240	1
TAP	45	288	2
TAP	45	288	7
TAP	46	0	3
TAP	46	0	4
TAP	46	96	5
TAP	46	96	6
STR	46	144	5
SCR	46	144	5	96	48	0
STR	46	144	6
SI_	46	144	6	96	48	1
STR	46	336	1
SI_	46	336	1	96	48	6
STR	46	336	2
SCL	46	336	2	96	48	7
BRK	47	144	0
BRK	47	144	5
TAP	47	240	3
TAP	47	240	4
TAP	47	288	3
TAP	47	288	4
STR	48	0	0
SI_	48	0	0	96	48	5
STR	48	96	0
SI_	48	96	0	96	48	4
STR	48	192	0
SI_	48	192	0	96	48	3
TAP	49	0	4
TAP	49	0	5
STR	49	48	4
SI_	49	48	4	96	48	1
STR	49	48	5
SI_	49	48	5	96	48	0
TAP	49	144	4
TAP	49	144	5
TAP	49	240	1
TAP	49	240	6
TAP	49	288	1
TAP	49	288	6
STR	50	0	7
SI_	50	0	7	96	48	3
HLD	50	96	7	96
STR	50	192	0
SI_	50	192	0	96	48	5
HLD	50	288	0	96
STR	51	0	7
SI_	51	0	7	96	48	2
HLD	51	96	7	96
STR	51	192	0
SI_	51	192	0	96	48	4
HLD	51	288	0	96
STR	52	0	7
SI_	52	0	7	96	48	3
HLD	52	96	7	96
TAP	52	192	5
STR	52	240	4
SI_	52	240	4	96	48	1
STR	52	240	5
SI_	52	240	5	96	48	0
STR	53	48	2
SI_	53	48	2	96	48	7
STR	53	48	3
SI_	53	48	3	96	48	6
TAP	53	240	4
TAP	53	240	5
TAP	53	288	3
TAP	53	288	6
STR	54	0	5
SCR	54	0	5	96	48	0
STR	54	0	7
SI_	54	0	7	96	48	2
STR	54	192	0
SI_	54	192	0	96	48	5
STR	54	192	2
SCL	54	192	2	96	48	7
STR	55	0	4
SI_	55	0	4	96	48	1
STR	55	0	6
SCL	55	0	6	96	48	3
STR	55	192	1
SCR	55	192	1	96	48	4
STR	55	192	3
SI_	55	192	3	96	48	6
TAP	56	0	7
TAP	56	24	6
TAP	56	48	5
TAP	56	72	4
TAP	56	96	7
TAP	56	120	0
TAP	56	144	1
TAP	56	168	2
TAP	56	192	5
TAP	56	216	4
TAP	56	240	3
TAP	56	264	2
TAP	56	288	1
TAP	56	312	0
TAP	56	336	7
TAP	56	360	6
TAP	57	0	1
TAP	57	0	5
STR	57	48	1
SI_	57	48	1	96	48	6
STR	57	48	5
SI_	57	48	5	96	48	2
BRK	57	144	1
BRK	57	144	5
TAP	57	240	0
TAP	57	240	4
STR	57	288	0
SCR	57	288	0	96	48	3
STR	57	288	4
SCR	57	288	4	96	48	7
STR	58	0	0
SUL	58	0	0	96	48	4
STR	58	0	4
SUL	58	0	4	96	48	0
STR	58	96	0
SCR	58	96	0	96	48	3
STR	58	96	4
SCR	58	96	4	96	48	7
TAP	58	192	0
TAP	58	192	4
STR	58	288	3
SCL	58	288	3	96	48	0
STR	58	288	7
SCL	58	288	7	96	48	4
STR	59	0	3
SUR	59	0	3	96	48	7
STR	59	0	7
SUR	59	0	7	96	48	3
STR	59	96	3
SCL	59	96	3	96	48	0
STR	59	96	7
SCL	59	96	7	96	48	4
TAP	59	192	3
TAP	59	192	7
STR	59	288	0
SCR	59	288	0	96	48	3
STR	59	288	4
SCR	59	288	4	96	48	7
STR	60	0	0
SUL	60	0	0	96	48	4
STR	60	0	4
SUL	60	0	4	96	48	0
STR	60	96	0
SCR	60	96	0	96	48	3
STR	60	96	4
SCR	60	96	4	96	48	7
TAP	60	192	0
TAP	60	192	4
STR	60	288	3
SCL	60	288	3	96	48	0
STR	60	288	7
SCL	60	288	7	96	48	4
STR	61	0	3
SUR	61	0	3	96	48	7
STR	61	0	7
SUR	61	0	7	96	48	3
STR	61	96	3
SCL	61	96	3	96	48	0
STR	61	96	7
SCL	61	96	7	96	48	4
TAP	61	192	3
TAP	61	192	7
BRK	61	288	1
BRK	61	288	5
TAP	62	0	4
STR	62	0	5
SCR	62	0	5	96	48	0
TAP	62	96	1
STR	62	144	1
SCR	62	144	1	96	48	4
TAP	62	240	7
STR	62	336	2
SI_	62	336	2	96	48	7
STR	62	336	6
SI_	62	336	6	96	48	3
BRK	63	48	2
BRK	63	48	6
BRK	63	144	1
BRK	63	144	5
TAP	63	240	3
TAP	63	240	4
TAP	63	288	3
STR	63	288	4
SCR	63	288	4	96	96	0
STR	64	0	0
SCR	64	0	0	96	96	4
STR	64	96	4
SCR	64	96	4	96	96	0
STR	64	192	0
SCR	64	192	0	96	96	4
TAP	64	288	4
TAP	65	0	0
STR	65	48	0
SF_	65	48	0	96	48	4
BRK	65	144	0
TAP	65	240	2
TAP	65	240	6
TAP	65	288	2
TAP	65	288	6
STR	66	0	0
SI_	66	0	0	96	48	5
TAP	66	0	1
STR	66	96	0
SI_	66	96	0	96	48	3
TAP	66	96	7
STR	66	192	0
SI_	66	192	0	96	48	4
TAP	66	192	1
TAP	66	288	0
TAP	66	288	7
TAP	67	0	6
STR	67	0	7
SI_	67	0	7	96	48	2
TAP	67	96	0
STR	67	96	7
SI_	67	96	7	96	48	4
TAP	67	192	6
STR	67	192	7
SI_	67	192	7	96	48	3
TAP	67	288	0
TAP	67	288	7
STR	68	0	2
SUR	68	0	2	96	48	7
STR	68	0	3
SCR	68	0	3	96	48	6
STR	68	192	4
SCL	68	192	4	96	48	1
STR	68	192	5
SUL	68	192	5	96	48	0
TAP	69	0	2
TAP	69	0	3
TAP	69	96	4
TAP	69	96	5
STR	69	192	2
SUR	69	192	2	96	48	7
STR	69	192	3
SCR	69	192	3	96	48	6
STR	70	0	0
SV_	70	0	0	96	96	5
STR	70	96	5
SCR	70	96	5	96	96	1
STR	70	192	1
SV_	70	192	1	96	96	4
STR	70	288	4
SCL	70	288	4	96	96	0
STR	71	0	0
SUR	71	0	0	96	96	5
STR	71	96	5
SSR	71	96	5	96	144	1
TAP	72	0	0
STR	72	0	6
SCL	72	0	6	96	48	3
STR	72	192	1
SCR	72	192	1	96	48	4
TAP	72	192	7
HLD	73	0	3	96
HLD	73	0	4	96
TAP	73	144	3
STR	73	144	4
SUL	73	144	4	96	96	3
STR	73	240	3
SCL	73	240	3	96	192	4
TAP	73	240	4
TAP	74	192	0
TAP	74	240	7
TAP	74	288	1
TAP	74	288	6
TAP	75	0	0
TAP	75	0	5
TAP	75	48	7
TAP	75	96	6
TAP	75	144	2
TAP	75	144	7
TAP	75	192	0
TAP	75	240	1
TAP	75	288	0
TAP	75	288	5
STR	76	0	7
SI_	76	0	7	96	48	4
TAP	76	96	2
TAP	76	192	2
STR	76	192	4
SI_	76	192	4	96	48	0
TAP	76	288	2
STR	77	0	0
SI_	77	0	0	96	48	5
TAP	77	0	2
TAP	77	96	2
TAP	77	192	2
STR	77	192	5
SI_	77	192	5	96	48	1
TAP	77	288	2
STR	78	0	1
SI_	78	0	1	96	48	6
TAP	78	0	2
TAP	78	96	2
TAP	78	192	2
STR	78	192	6
SI_	78	192	6	96	48	3
TAP	78	288	2
STR	79	0	0
SCR	79	0	0	96	48	3
TAP	79	48	7
TAP	79	96	6
STR	79	144	5
SCR	79	144	5	96	48	0
TAP	79	192	4
TAP	79	240	3
STR	79	288	2
SCR	79	288	2	96	48	5
TAP	79	336	1
TAP	80	0	0
STR	80	48	7
SCR	80	48	7	96	48	2
TAP	80	96	6
TAP	80	144	5
STR	80	192	4
SCR	80	192	4	96	48	7
TAP	80	240	3
TAP	80	288	2
STR	80	336	1
SCR	80	336	1	96	48	4
TAP	81	0	0
TAP	81	48	7
STR	81	96	6
SCR	81	96	6	96	48	1
TAP	81	144	5
STR	81	192	4
SI_	81	192	4	96	48	0
STR	82	0	7
SI_	82	0	7	96	48	3
STR	82	192	3
SI_	82	192	3	96	48	6
STR	83	0	6
SI_	83	0	6	96	48	1
STR	83	192	1
SI_	83	192	1	96	48	4
STR	84	0	4
SI_	84	0	4	96	192	0
BRK	85	0	2
BRK	85	0	5
BRK	85	48	1
BRK	85	48	6
BRK	85	96	3
BRK	85	96	4
BRK	85	144	0
BST	85	144	7
SCL	85	144	7	96	912	0

T_REC_TAP	202
T_REC_BRK	37
T_REC_XTP	0
T_REC_HLD	13
T_REC_XHO	0
T_REC_STR	194
T_REC_BST	1
T_REC_XST	0
T_REC_TTP	0
T_REC_THO	0
T_REC_SLD	195
T_REC_ALL	642
T_NUM_TAP	396
T_NUM_BRK	38
T_NUM_HLD	13
T_NUM_SLD	195
T_NUM_ALL	642
T_JUDGE_TAP	434
T_JUDGE_HLD	36
T_JUDGE_SLD	195
T_JUDGE_ALL	665
TTM_EACHPAIRS	113
TTM_SCR_TAP	198000
TTM_SCR_BRK	98800
TTM_SCR_HLD	13000
TTM_SCR_SLD	292500
TTM_SCR_ALL	602300
TTM_SCR_S	580550
TTM_SCR_SS	598500
TTM_RAT_ACV	10063

