VERSION	0.00.00	1.03.00
FES_MODE	0
BPM_DEF	174.000	174.000	174.000	174.000
MET_DEF	4	4
RESOLUTION	384
CLK_DEF	384
COMPATIBLE_CODE	MA2

BPM	0	0	174.000
MET	0	0	4	4

TAP	2	0	2
TAP	2	96	3
TAP	2	192	4
TAP	2	288	5
STR	3	0	6
SCL	3	0	6	96	96	3
STR	3	0	7
SCR	3	0	7	96	96	2
STR	4	0	0
SCL	4	0	0	96	96	5
STR	4	0	1
SCR	4	0	1	96	96	4
STR	5	0	3
SCL	5	0	3	96	96	0
STR	5	0	4
SCR	5	0	4	96	96	7
TAP	6	0	5
TAP	6	96	4
TAP	6	192	3
TAP	6	288	2
STR	7	0	0
SCL	7	0	0	96	96	5
STR	7	0	1
SCR	7	0	1	96	96	4
STR	8	0	6
SCL	8	0	6	96	96	3
STR	8	0	7
SCR	8	0	7	96	96	2
BRK	9	0	1
BRK	9	0	6
TAP	10	0	4
TAP	10	0	5
TAP	10	96	3
TAP	10	192	2
TAP	10	192	3
TAP	10	288	4
TAP	11	0	4
TAP	11	0	6
TAP	11	96	3
TAP	11	192	1
TAP	11	192	3
TAP	11	288	4
HLD	12	0	4	96
TAP	12	0	6
TAP	12	96	3
TAP	12	192	1
HLD	12	192	3	96
TAP	12	288	4
STR	13	0	0
SCR	13	0	0	96	96	3
STR	13	0	7
SCL	13	0	7	96	96	4
TAP	14	0	6
TAP	14	0	7
TAP	14	96	5
TAP	14	192	0
TAP	14	192	1
TAP	14	288	2
TAP	15	0	0
TAP	15	0	6
TAP	15	96	4
TAP	15	192	1
TAP	15	192	7
TAP	15	288	3
TAP	16	0	6
TAP	16	0	7
TAP	16	96	0
TAP	16	96	1
TAP	16	192	5
TAP	16	192	7
TAP	16	288	0
TAP	16	288	2
TAP	17	0	3
TAP	17	0	4
TAP	17	48	3
TAP	17	48	4
BRK	17	144	1
BRK	17	144	6
TAP	18	0	3
TAP	18	0	6
TAP	18	96	5
HLD	18	144	5	96
TAP	18	240	4
TAP	18	288	4
HLD	18	336	6	96
TAP	19	48	3
TAP	19	96	3
HLD	19	144	7	96
TAP	19	240	2
TAP	19	288	2
HLD	19	336	0	96
HLD	20	48	1	96
TAP	20	144	2
TAP	20	240	3
TAP	20	240	4
TAP	20	288	3
TAP	20	288	4
STR	21	0	6
SCL	21	0	6	96	96	3
STR	21	0	7
SCR	21	0	7	96	96	2
TAP	22	0	2
TAP	22	0	7
TAP	22	96	1
HLD	22	144	1	96
TAP	22	240	0
TAP	22	288	0
HLD	22	336	2	96
TAP	23	48	7
TAP	23	96	7
HLD	23	144	3	96
TAP	23	240	6
TAP	23	288	6
HLD	23	336	4	96
HLD	24	48	5	96
TAP	24	144	6
TAP	24	240	0
TAP	24	240	7
TAP	24	288	0
TAP	24	288	7
TAP	25	0	2
TAP	25	0	3
TAP	25	48	2
TAP	25	48	3
TAP	25	144	1
TAP	25	144	6
TAP	25	240	4
TAP	25	240	5
TAP	25	288	4
TAP	25	288	5
TAP	26	0	1
TAP	26	0	4
TAP	26	96	2
HLD	26	144	2	96
TAP	26	240	3
TAP	26	288	3
HLD	26	336	1	96
TAP	27	48	4
TAP	27	96	4
HLD	27	144	0	96
TAP	27	240	5
TAP	27	288	5
HLD	27	336	7	96
HLD	28	48	6	96
TAP	28	144	5
TAP	28	240	3
TAP	28	240	4
TAP	28	288	3
TAP	28	288	4
STR	29	0	0
SCL	29	0	0	96	96	5
STR	29	0	1
SCR	29	0	1	96	96	4
TAP	30	0	0
TAP	30	0	5
TAP	30	96	6
HLD	30	144	6	96
TAP	30	240	7
TAP	30	288	7
HLD	30	336	5	96
TAP	31	48	0
TAP	31	96	0
HLD	31	144	4	96
TAP	31	240	1
TAP	31	288	1
HLD	31	336	3	96
HLD	32	48	2	96
TAP	32	144	1
TAP	32	240	0
TAP	32	240	7
TAP	32	288	0
TAP	32	288	7
TAP	33	0	4
TAP	33	0	5
TAP	33	48	4
TAP	33	48	5
TAP	33	144	1
TAP	33	144	6
TAP	33	240	2
TAP	33	240	3
TAP	33	288	2
TAP	33	288	3
HLD	34	0	5	144
TAP	34	144	4
TAP	34	192	4
TAP	34	192	5
TAP	34	288	3
TAP	34	288	6
HLD	35	0	2	144
TAP	35	144	3
TAP	35	192	2
TAP	35	192	3
TAP	35	288	1
TAP	35	288	4
HLD	36	0	5	144
TAP	36	144	4
TAP	36	192	4
TAP	36	192	5
TAP	36	288	1
TAP	36	288	6
HLD	37	0	2	144
TAP	37	144	3
TAP	37	192	2
TAP	37	192	3
TAP	37	288	1
TAP	37	288	6
HLD	38	0	5	144
TAP	38	144	4
TAP	38	192	4
TAP	38	192	5
TAP	38	288	0
TAP	38	288	7
HLD	39	0	2	144
TAP	39	144	3
TAP	39	192	2
TAP	39	192	3
TAP	39	288	0
TAP	39	288	7
TAP	40	0	4
TAP	40	0	5
TAP	40	96	2
TAP	40	96	3
TAP	40	192	4
TAP	40	192	6
TAP	40	288	1
TAP	40	288	3
TAP	41	0	0
TAP	41	0	7
TAP	41	48	0
TAP	41	48	7
BRK	41	144	2
BRK	41	144	5
TAP	41	240	6
TAP	41	240	7
TAP	41	336	2
TAP	41	336	4
STR	42	0	2
SCL	42	0	2	96	48	6
HLD	42	0	4	96
HLD	42	192	5	96
STR	42	192	7
SCR	42	192	7	96	48	3
STR	43	0	2
SCL	43	0	2	96	48	6
HLD	43	0	4	96
HLD	43	192	5	96
STR	43	192	7
SCR	43	192	7	96	48	3
STR	44	0	2
SCL	44	0	2	96	48	6
HLD	44	0	4	96
HLD	44	192	5	96
STR	44	192	7
SCR	44	192	7	96	48	3
STR	45	0	2
SCL	45	0	2	96	96	5
SUL	45	0	2	96	96	5
TAP	45	0	4
TAP	45	288	3
TAP	45	288	4
TAP	46	0	0
TAP	46	0	7
TAP	46	96	0
TAP	46	96	7
TAP	46	144	1
TAP	46	144	6
TAP	46	240	4
TAP	46	240	5
TAP	46	336	2
TAP	46	336	3
STR	47	48	5
SUR	47	48	5	96	96	2
STR	47	48	6
SCR	47	48	6	96	96	1
TAP	48	0	3
TAP	48	0	4
TAP	48	96	1
TAP	48	96	3
STR	48	192	6
SI_	48	192	6	96	48	4
STR	48	192	7
SI_	48	192	7	96	48	3
STR	49	0	2
SXR	49	0	2	96	96	1
STR	49	0	5
SXL	49	0	5	96	96	6
TAP	49	288	3
TAP	49	288	4
STR	50	0	1
SUR	50	0	1	96	48	5
STR	50	0	2
SCR	50	0	2	96	48	4
TAP	50	192	6
TAP	50	192	7
TAP	50	240	6
TAP	50	240	7
TAP	50	336	0
TAP	50	336	1
TAP	51	0	0
STR	51	0	1
SCR	51	0	1	96	48	4
STR	51	96	6
SUL	51	96	6	96	48	2
STR	51	192	1
SUR	51	192	1	96	48	5
TAP	51	288	7
STR	52	0	0
SUR	52	0	0	96	48	5
STR	52	0	1
SCR	52	0	1	96	48	4
STR	52	192	6
SCL	52	192	6	96	48	3
STR	52	192	7
SUL	52	192	7	96	48	2
STR	53	0	0
SUR	53	0	0	96	96	7
STR	53	0	1
SCR	53	0	1	96	96	6
TAP	53	288	0
TAP	53	288	1
STR	54	0	5
SI_	54	0	5	96	48	1
STR	54	192	2
SI_	54	192	2	96	48	6
STR	55	0	4
SI_	55	0	4	96	48	1
SI_	55	0	4	96	48	7
STR	55	192	3
SI_	55	192	3	96	48	0
SI_	55	192	3	96	48	6
STR	56	0	4
SF_	56	0	4	96	96	0
TAP	56	288	2
TAP	56	288	5
TAP	57	0	3
TAP	57	0	4
TAP	57	48	3
TAP	57	48	4
BRK	57	144	2
BRK	57	144	5
TAP	57	240	0
TAP	57	240	1
TAP	57	336	3
TAP	57	336	5
HLD	58	0	3	96
STR	58	0	5
SCR	58	0	5	96	48	1
STR	58	192	0
SCL	58	192	0	96	48	4
HLD	58	192	2	96
HLD	59	0	3	96
STR	59	0	5
SCR	59	0	5	96	48	1
STR	59	192	0
SCL	59	192	0	96	48	4
HLD	59	192	2	96
HLD	60	0	3	96
STR	60	0	5
SCR	60	0	5	96	48	1
STR	60	192	0
SCL	60	192	0	96	48	4
HLD	60	192	2	96
TAP	61	0	3
STR	61	0	5
SCR	61	0	5	96	96	2
SUR	61	0	5	96	96	2
TAP	61	288	3
TAP	61	288	4
TAP	62	0	0
TAP	62	0	7
TAP	62	96	0
TAP	62	96	7
TAP	62	144	1
TAP	62	144	6
TAP	62	240	2
TAP	62	240	3
TAP	62	336	4
TAP	62	336	5
STR	63	48	1
SCL	63	48	1	96	96	6
STR	63	48	2
SUL	63	48	2	96	96	5
TAP	64	0	3
TAP	64	0	4
TAP	64	96	4
TAP	64	96	6
STR	64	192	0
SI_	64	192	0	96	48	4
STR	64	192	1
SI_	64	192	1	96	48	3
STR	65	0	2
SXR	65	0	2	96	96	1
STR	65	0	5
SXL	65	0	5	96	96	6
TAP	65	288	3
TAP	65	288	4
STR	66	0	5
SCL	66	0	5	96	48	3
STR	66	0	6
SUL	66	0	6	96	48	2
TAP	66	192	0
TAP	66	192	1
TAP	66	240	0
TAP	66	240	1
TAP	66	336	6
TAP	66	336	7
STR	67	0	6
SCL	67	0	6	96	48	3
TAP	67	0	7
STR	67	96	1
SUR	67	96	1	96	48	5
STR	67	192	6
SUL	67	192	6	96	48	2
TAP	67	288	0
STR	68	0	6
SCL	68	0	6	96	48	3
STR	68	0	7
SUL	68	0	7	96	48	2
STR	68	192	0
SUR	68	192	0	96	48	5
STR	68	192	1
SCR	68	192	1	96	48	4
STR	69	0	6
SCL	69	0	6	96	96	1
STR	69	0	7
SUL	69	0	7	96	96	0
TAP	69	288	6
TAP	69	288	7
HLD	70	0	2	96
HLD	70	0	3	96
HLD	70	144	4	96
HLD	70	144	5	96
TAP	70	336	3
TAP	70	336	4
TAP	71	48	2
TAP	71	48	5
TAP	71	96	2
TAP	71	96	5
TAP	71	144	3
TAP	71	144	4
TAP	71	240	3
TAP	71	240	4
BRK	71	336	1
BRK	71	336	6
TAP	72	96	2
TAP	72	96	5
TAP	72	192	3
TAP	72	192	4
STR	72	240	3
SCL	72	240	3	96	192	4
STR	72	240	4
SCR	72	240	4	96	192	3
TAP	73	240	1
TAP	73	240	6
TAP	73	288	1
TAP	73	288	6
STR	73	336	0
SXL	73	336	0	96	240	3
STR	73	336	7
SXR	73	336	7	96	240	4
TAP	75	0	1
TAP	75	0	4
TAP	75	48	1
TAP	75	48	4
TAP	75	144	6
TAP	75	144	7
TAP	75	240	3
TAP	75	240	6
TAP	75	288	3
TAP	75	288	6
STR	76	0	0
SI_	76	0	0	96	48	4
STR	76	0	1
SI_	76	0	1	96	48	4
STR	76	192	6
SI_	76	192	6	96	48	3
STR	76	192	7
SI_	76	192	7	96	48	3
STR	77	0	2
SXR	77	0	2	96	96	1
STR	77	0	5
SXL	77	0	5	96	96	6
TAP	77	288	3
TAP	77	288	4
TAP	78	0	0
TAP	78	0	2
TAP	78	96	5
TAP	78	96	7
TAP	78	192	1
TAP	78	192	2
TAP	78	288	5
TAP	78	288	6
HLD	79	0	0	96
TAP	79	96	2
HLD	79	144	2	96
TAP	79	240	4
HLD	79	288	4	96
TAP	80	0	7
HLD	80	48	7	96
TAP	80	144	5
HLD	80	192	5	96
TAP	80	288	3
TAP	80	336	3
STR	81	0	3
SCL	81	0	3	96	96	5
TAP	81	240	3
TAP	81	240	4
TAP	81	288	3
TAP	81	288	4
HLD	82	0	1	96
HLD	82	0	3	96
HLD	82	144	4	96
HLD	82	144	6	96
TAP	82	288	2
TAP	82	288	5
STR	83	0	0
SXL	83	0	0	96	192	3
STR	83	0	7
SXR	83	0	7	96	192	4
HLD	84	0	2	288
HLD	84	0	5	288
TAP	85	0	1
TAP	85	0	6
TAP	85	96	0
TAP	85	96	7
STR	85	144	0
SCR	85	144	0	96	528	7
STR	85	144	7
SCL	85	144	7	96	528	0

T_REC_TAP	292
T_REC_BRK	10
T_REC_XTP	0
T_REC_HLD	55
T_REC_XHO	0
T_REC_STR	84
T_REC_BST	0
T_REC_XST	0
T_REC_TTP	0
T_REC_THO	0
T_REC_SLD	88
T_REC_ALL	529
T_NUM_TAP	376
T_NUM_BRK	10
T_NUM_HLD	55
T_NUM_SLD	88
T_NUM_ALL	529
T_JUDGE_TAP	386
T_JUDGE_HLD	124
T_JUDGE_SLD	88
T_JUDGE_ALL	598
TTM_EACHPAIRS	168
TTM_SCR_TAP	188000
TTM_SCR_BRK	26000
TTM_SCR_HLD	55000
TTM_SCR_SLD	132000
TTM_SCR_ALL	401000
TTM_SCR_S	388000
TTM_SCR_SS	400000
TTM_RAT_ACV	10025

