VERSION	0.00.00	1.03.00
FES_MODE	0
BPM_DEF	174.000	174.000	174.000	174.000
MET_DEF	4	4
RESOLUTION	384
CLK_DEF	384
COMPATIBLE_CODE	MA2

BPM	0	0	174.000
MET	0	0	4	4

TAP	6	0	0
TAP	6	0	7
TAP	6	192	1
TAP	6	192	6
TAP	7	0	2
TAP	7	0	5
TAP	7	192	3
TAP	7	192	4
STR	8	0	3
SI_	8	0	3	96	96	0
STR	8	0	4
SI_	8	0	4	96	96	7
BRK	9	0	1
BRK	9	0	6
TAP	10	0	2
TAP	10	96	2
TAP	10	192	1
TAP	10	192	3
TAP	11	0	5
TAP	11	96	5
TAP	11	192	4
TAP	11	192	6
TAP	12	0	2
TAP	12	96	2
TAP	12	192	1
TAP	12	192	3
TAP	13	0	5
TAP	13	96	5
TAP	13	192	4
TAP	13	192	6
STR	14	0	0
SI_	14	0	0	96	96	5
STR	14	0	1
SI_	14	0	1	96	96	4
STR	15	0	6
SI_	15	0	6	96	96	3
STR	15	0	7
SI_	15	0	7	96	96	2
STR	16	0	3
SCL	16	0	3	96	144	0
STR	16	0	4
SCR	16	0	4	96	144	7
TAP	17	0	0
TAP	17	0	7
TAP	17	96	0
TAP	17	96	7
BRK	17	192	1
BRK	17	192	6
TAP	18	0	5
TAP	18	96	5
TAP	18	192	4
TAP	18	288	4
TAP	19	0	3
TAP	19	96	3
TAP	19	192	2
TAP	19	288	2
TAP	20	0	1
TAP	20	96	1
TAP	20	192	0
TAP	20	288	0
TAP	21	0	6
TAP	21	0	7
TAP	21	96	6
TAP	21	96	7
TAP	21	192	0
TAP	21	192	5
TAP	22	0	2
TAP	22	96	2
TAP	22	192	3
TAP	22	288	3
TAP	23	0	4
TAP	23	96	4
TAP	23	192	5
TAP	23	288	5
TAP	24	0	6
TAP	24	96	6
TAP	24	192	7
TAP	24	288	7
TAP	25	0	0
TAP	25	0	1
TAP	25	96	0
TAP	25	96	1
TAP	25	192	2
TAP	25	192	7
TAP	26	0	1
TAP	26	96	1
TAP	26	192	0
TAP	26	288	0
TAP	27	0	7
TAP	27	96	7
TAP	27	192	6
TAP	27	288	6
TAP	28	0	5
TAP	28	96	5
TAP	28	192	4
TAP	28	288	4
TAP	29	0	2
TAP	29	0	3
TAP	29	96	2
TAP	29	96	3
TAP	29	192	1
TAP	29	192	4
TAP	30	0	6
TAP	30	96	6
TAP	30	192	7
TAP	30	288	7
TAP	31	0	0
TAP	31	96	0
TAP	31	192	1
TAP	31	288	1
TAP	32	0	2
TAP	32	96	2
TAP	32	192	3
TAP	32	288	3
TAP	33	0	4
TAP	33	0	5
TAP	33	96	4
TAP	33	96	5
TAP	33	192	3
TAP	33	192	6
HLD	34	0	5	192
TAP	34	192	4
TAP	34	288	3
TAP	34	288	6
HLD	35	0	2	192
TAP	35	192	3
TAP	35	288	1
TAP	35	288	4
HLD	36	0	5	192
TAP	36	192	4
TAP	36	288	3
TAP	36	288	6
HLD	37	0	2	192
TAP	37	192	3
TAP	37	288	1
TAP	37	288	4
HLD	38	0	6	192
TAP	38	192	7
TAP	38	288	0
TAP	38	288	5
HLD	39	0	1	192
TAP	39	192	0
TAP	39	288	2
TAP	39	288	7
STR	40	0	0
SCR	40	0	0	96	144	3
STR	40	0	7
SCL	40	0	7	96	144	4
TAP	41	0	0
TAP	41	0	7
TAP	41	96	0
TAP	41	96	7
BRK	41	192	1
BRK	41	192	6
TAP	42	0	6
TAP	42	96	5
TAP	42	96	7
TAP	42	192	1
TAP	42	288	0
TAP	42	288	2
TAP	43	0	6
TAP	43	96	5
TAP	43	96	7
TAP	43	192	1
TAP	43	288	0
TAP	43	288	2
TAP	44	0	6
TAP	44	96	6
TAP	44	96	7
TAP	44	192	0
TAP	44	192	5
TAP	44	288	1
TAP	44	288	4
STR	45	0	2
SI_	45	0	2	96	96	7
STR	45	0	3
SI_	45	0	3	96	96	6
HLD	46	0	1	192
HLD	46	192	2	192
HLD	47	0	3	192
HLD	47	192	4	192
STR	48	0	5
SUL	48	0	5	96	288	2
TAP	49	192	0
TAP	49	192	7
TAP	50	0	5
TAP	50	96	4
TAP	50	96	5
TAP	50	192	2
TAP	50	288	2
TAP	50	288	3
TAP	51	0	5
TAP	51	96	4
TAP	51	96	6
TAP	51	192	3
TAP	51	192	5
TAP	51	288	2
TAP	51	288	4
TAP	52	0	1
TAP	52	96	0
TAP	52	96	1
TAP	52	192	6
TAP	52	288	6
TAP	52	288	7
STR	53	0	6
SI_	53	0	6	96	96	3
STR	53	0	7
SI_	53	0	7	96	96	2
HLD	54	0	4	96
HLD	54	0	5	96
HLD	54	192	2	96
HLD	54	192	3	96
HLD	55	0	4	96
HLD	55	0	6	96
HLD	55	192	1	96
HLD	55	192	3	96
STR	56	0	3
SCL	56	0	3	96	144	0
STR	56	0	4
SCR	56	0	4	96	144	7
TAP	57	0	3
TAP	57	0	4
TAP	57	96	3
TAP	57	96	4
BRK	57	192	1
BRK	57	192	6
TAP	58	0	1
TAP	58	96	0
TAP	58	96	2
TAP	58	192	6
TAP	58	288	5
TAP	58	288	7
TAP	59	0	1
TAP	59	96	0
TAP	59	96	2
TAP	59	192	6
TAP	59	288	5
TAP	59	288	7
TAP	60	0	1
TAP	60	96	0
TAP	60	96	1
TAP	60	192	2
TAP	60	192	7
TAP	60	288	3
TAP	60	288	6
STR	61	0	4
SI_	61	0	4	96	96	1
STR	61	0	5
SI_	61	0	5	96	96	0
HLD	62	0	6	192
HLD	62	192	5	192
HLD	63	0	4	192
HLD	63	192	3	192
STR	64	0	2
SUR	64	0	2	96	288	5
TAP	65	192	0
TAP	65	192	7
TAP	66	0	2
TAP	66	96	2
TAP	66	96	3
TAP	66	192	5
TAP	66	288	4
TAP	66	288	5
TAP	67	0	2
TAP	67	96	1
TAP	67	96	3
TAP	67	192	2
TAP	67	192	4
TAP	67	288	3
TAP	67	288	5
TAP	68	0	6
TAP	68	96	6
TAP	68	96	7
TAP	68	192	1
TAP	68	288	0
TAP	68	288	1
STR	69	0	0
SI_	69	0	0	96	96	5
STR	69	0	1
SI_	69	0	1	96	96	4
HLD	70	0	2	96
HLD	70	0	3	96
HLD	70	192	4	96
HLD	70	192	5	96
HLD	71	0	1	96
HLD	71	0	3	96
HLD	71	192	4	96
HLD	71	192	6	96
STR	72	0	3
SCL	72	0	3	96	144	0
STR	72	0	4
SCR	72	0	4	96	144	7
TAP	73	0	0
TAP	73	0	7
TAP	73	96	1
TAP	73	96	6
TAP	73	192	2
TAP	73	192	5
TAP	73	288	3
TAP	73	288	4
TAP	74	0	3
TAP	74	0	4
TAP	74	96	2
TAP	74	192	3
TAP	74	192	4
TAP	74	288	5
TAP	75	0	3
TAP	75	0	4
TAP	75	96	3
TAP	75	96	4
BRK	75	192	1
BRK	75	192	6
HLD	76	0	2	96
TAP	76	96	3
HLD	76	192	5	96
TAP	76	288	4
HLD	77	0	2	96
TAP	77	96	3
HLD	77	192	5	96
TAP	77	288	4
TAP	78	0	2
TAP	78	96	1
TAP	78	96	3
TAP	78	192	5
TAP	78	288	4
TAP	78	288	6
HLD	79	0	1	96
TAP	79	96	0
HLD	79	192	6	96
TAP	79	288	7
HLD	80	0	1	96
TAP	80	96	0
HLD	80	192	6	96
TAP	80	288	7
TAP	81	0	0
TAP	81	0	7
TAP	81	96	0
TAP	81	96	7
TAP	81	192	1
TAP	81	192	6
TAP	82	0	1
TAP	82	96	0
TAP	82	96	2
TAP	82	192	6
TAP	82	288	5
TAP	82	288	7
TAP	83	0	2
TAP	83	96	1
TAP	83	96	3
TAP	83	192	5
TAP	83	288	4
TAP	83	288	6
TAP	84	0	3
TAP	84	0	4
TAP	84	96	3
TAP	84	96	4
TAP	84	192	2
TAP	84	192	5
TAP	84	288	2
TAP	84	288	5
TAP	85	0	1
TAP	85	0	6
TAP	85	96	0
TAP	85	96	7
STR	85	144	0
SXL	85	144	0	96	912	3
STR	85	144	7
SXR	85	144	7	96	912	4

T_REC_TAP	268
T_REC_BRK	10
T_REC_XTP	0
T_REC_HLD	38
T_REC_XHO	0
T_REC_STR	26
T_REC_BST	0
T_REC_XST	0
T_REC_TTP	0
T_REC_THO	0
T_REC_SLD	26
T_REC_ALL	368
T_NUM_TAP	294
T_NUM_BRK	10
T_NUM_HLD	38
T_NUM_SLD	26
T_NUM_ALL	368
T_JUDGE_TAP	304
T_JUDGE_HLD	104
T_JUDGE_SLD	26
T_JUDGE_ALL	434
TTM_EACHPAIRS	110
TTM_SCR_TAP	147000
TTM_SCR_BRK	26000
TTM_SCR_HLD	38000
TTM_SCR_SLD	39000
TTM_SCR_ALL	250000
TTM_SCR_S	241550
TTM_SCR_SS	249000
TTM_RAT_ACV	10040

