VERSION	0.00.00	1.03.00
FES_MODE	0
BPM_DEF	174.000	174.000	174.000	174.000
MET_DEF	4	4
RESOLUTION	384
CLK_DEF	384
COMPATIBLE_CODE	MA2

BPM	0	0	174.000
MET	0	0	4	4

TAP	6	0	3
TAP	7	0	4
TAP	8	0	3
TAP	8	0	4
TAP	10	0	3
TAP	10	192	3
TAP	11	0	3
TAP	12	0	2
TAP	12	192	2
TAP	13	0	2
TAP	14	0	1
TAP	14	192	1
TAP	15	0	1
TAP	16	0	0
TAP	16	192	0
BRK	17	0	0
TAP	18	0	7
TAP	18	192	7
TAP	19	0	6
TAP	19	192	6
TAP	20	0	5
TAP	20	192	5
TAP	21	0	3
TAP	21	0	4
TAP	22	0	3
TAP	22	192	3
TAP	23	0	2
TAP	23	192	2
TAP	24	0	1
TAP	24	192	1
TAP	25	0	0
TAP	25	0	7
TAP	26	0	0
TAP	26	192	0
TAP	27	0	1
TAP	27	192	1
TAP	28	0	2
TAP	28	192	2
TAP	29	0	3
TAP	29	0	4
TAP	30	0	4
TAP	30	192	4
TAP	31	0	5
TAP	31	192	5
TAP	32	0	6
TAP	32	192	6
BRK	33	0	0
BRK	33	0	7
STR	34	0	0
SI_	34	0	0	96	288	3
STR	36	0	7
SI_	36	0	7	96	288	4
TAP	38	0	0
TAP	38	192	0
TAP	39	0	7
TAP	39	192	7
TAP	40	0	0
TAP	40	0	7
TAP	40	192	0
TAP	40	192	7
BRK	41	0	1
BRK	41	0	6
TAP	42	0	0
TAP	42	192	0
TAP	43	0	1
TAP	43	192	1
TAP	44	0	2
TAP	44	96	2
TAP	44	192	2
TAP	45	0	3
TAP	45	0	4
TAP	46	0	4
TAP	46	0	5
TAP	46	192	4
TAP	46	192	5
TAP	47	0	2
TAP	47	0	3
TAP	47	192	2
TAP	47	192	3
TAP	48	0	4
TAP	48	192	4
TAP	49	0	4
TAP	49	0	5
TAP	50	0	7
TAP	50	192	7
TAP	51	0	6
TAP	51	192	6
TAP	52	0	5
TAP	52	96	5
TAP	52	192	5
TAP	53	0	3
TAP	53	0	4
TAP	54	0	2
TAP	54	0	3
TAP	54	192	2
TAP	54	192	3
TAP	55	0	4
TAP	55	0	5
TAP	55	192	4
TAP	55	192	5
TAP	56	0	3
TAP	56	192	3
BRK	57	0	2
BRK	57	0	3
TAP	58	0	0
TAP	58	96	0
TAP	58	192	0
TAP	59	0	1
TAP	59	96	1
TAP	59	192	1
TAP	60	0	2
TAP	60	96	2
TAP	60	192	2
TAP	61	0	3
TAP	61	0	4
TAP	61	192	3
TAP	61	192	4
TAP	62	0	4
TAP	62	96	4
TAP	62	192	4
TAP	63	0	3
TAP	63	96	3
TAP	63	192	3
TAP	64	0	4
TAP	64	0	5
TAP	64	192	4
TAP	64	192	5
HLD	65	0	6	192
TAP	66	0	7
TAP	66	96	7
TAP	66	192	7
TAP	67	0	6
TAP	67	96	6
TAP	67	192	6
TAP	68	0	5
TAP	68	96	5
TAP	68	192	5
TAP	69	0	3
TAP	69	0	4
TAP	69	192	3
TAP	69	192	4
TAP	70	0	3
TAP	70	96	3
TAP	70	192	3
TAP	71	0	4
TAP	71	96	4
TAP	71	192	4
TAP	72	0	2
TAP	72	0	3
TAP	72	192	2
TAP	72	192	3
HLD	73	0	1	192
TAP	74	0	0
TAP	74	192	0
BRK	75	0	0
BRK	75	0	7
TAP	76	0	7
TAP	76	192	7
TAP	77	0	6
TAP	77	192	6
TAP	78	0	5
TAP	78	192	5
TAP	79	0	3
TAP	79	0	4
TAP	80	0	3
TAP	80	192	3
TAP	81	0	2
TAP	81	192	2
TAP	82	0	1
TAP	82	192	1
TAP	83	0	0
TAP	83	192	0
TAP	84	0	7
TAP	84	192	7
STR	85	0	7
SI_	85	0	7	96	288	3

T_REC_TAP	159
T_REC_BRK	9
T_REC_XTP	0
T_REC_HLD	2
T_REC_XHO	0
T_REC_STR	3
T_REC_BST	0
T_REC_XST	0
T_REC_TTP	0
T_REC_THO	0
T_REC_SLD	3
T_REC_ALL	176
T_NUM_TAP	162
T_NUM_BRK	9
T_NUM_HLD	2
T_NUM_SLD	3
T_NUM_ALL	176
T_JUDGE_TAP	171
T_JUDGE_HLD	8
T_JUDGE_SLD	3
T_JUDGE_ALL	182
TTM_EACHPAIRS	30
TTM_SCR_TAP	81000
TTM_SCR_BRK	23400
TTM_SCR_HLD	2000
TTM_SCR_SLD	4500
TTM_SCR_ALL	110900
TTM_SCR_S	106700
TTM_SCR_SS	110000
TTM_RAT_ACV	10081

